Точка невозврата / High Wire Act / Beirut (Брэд Андерсон) [2018, триллер, драма, BDRemux 1080p от селезень | Лицензия]

Ответить на тему
Статистика раздачи [Обновить пиров]
Размер:  29,89 GB   |    Зарегистрирован:  2 месяца 14 дней   |    .torrent скачан:  7 раз
Сидов:  232  [  0 KB/s  ]   Личеров:  32  [  0 KB/s  ]   Подробная статистика пиров
 
   
 
 
Автор Сообщение

Skorp10n ®

Оффлайн

 Активный раздающий 1 Активный раздающий 2
 Активный релизер 1000 Активный релизер 1500 Активный релизер 2000 Активный релизер 250 Активный релизер 3000 Активный релизер 500 Активный релизер 5000 Активный релизер Фильмов (1000) Активный релизер Фильмов (300) Активный релизер Фильмов (600) Активный Форумчанин 1 Активный Форумчанин 2 Активный Форумчанин 3 Активный Форумчанин 4 Друг трекера Карма 1000 Карма 1500 Карма 3000 Карма 500 Меценат Ни дня без новостей Орденосец 1 степени Орденосец 2 степени Орденосец 3 степени Почетный орденосец Почетный репортер С Новым 2016 Годом! С Новым 2017 Годом! С Новым 2018 Годом! С Новым 2019 Годом! Супер Мега Контер Квейк ТОП-10

Пол: Мужской

Стаж: 3 года 8 месяцев

Наличие запрета:

Сообщений: 10023

Откуда: Free-Tor.com

Отдача: не определено

Загрузка: не определено

Нажми

Создавать темы 11-Фев-2019 13:22

[Цитировать]

Информация о фильме- Название: Точка не возврата
Оригинальное название: High Wire Act / Beirut
Год выхода: 2018
Жанр: Триллер, драма
Режиссер: Брэд Андерсон
В ролях: Розамунд Пайк, Джон Хэмм, Марк Пеллегрино, Дин Норрис, Шей Уигэм, Джонатан Койн, Дуглас Ходж, Лейла Бехти, Кейт Флитвуд, Алон Абутбул- -О фильме: Разгар Ливанской войны. Интриги, предательство, грязные компроматы, нравственное падение, жертвенность и любовь, боль и надежда… На руках героя умирает жена, подстреленная террористами. Через десять лет он, преодолев ненависть и отчаяние, возвращается в Бейрут, чтобы вызволить из плена давнего друга, захваченного в плен боевиками.-Страна: США
Студия: Electric Entertainment
Продолжительность: 01:49:45
Перевод: Дублированный | Лицензия R5-Качество: BDRemux 1080p
Видео: MPEG-4 AVC, 1920x1080, 34.8 Mbit/s, 23.976 fps
Аудио #01: 48 kHz, AC3, 5.1, 448 Kbps | Дублированный | RUS |
Аудио #02: 48 kHz, DTS-HD MA, 5.1, 3778 Kbps | Оригинал | ENG |
Субтитры: Английские-

Скриншоты

--
-

MI

-General
Unique ID : 52404188353888971630611068391387794514 (0x276CADF765421E5AC1A90E699B1B8C52)
Complete name : D:Video111High Wire Act.(Beirut).2018.BDREMUX.1080p.seleZen.mkv
Format : Matroska
Format version : Version 4
File size : 29.9 GiB
Duration : 1 h 49 min
Overall bit rate mode : Variable
Overall bit rate : 39.0 Mb/s
Movie name : High Wire Act from селезень
Encoded date : UTC 2019-02-11 08:52:24
Writing application : mkvmerge v29.0.0 ('Like It Or Not') 64-bit
Writing library : libebml v1.3.6 + libmatroska v1.4.9
Video
ID : 1
Format : AVC
Format/Info : Advanced Video Codec
Format profile : [email protected]
Format settings : CABAC / 4 Ref Frames
Format settings, CABAC : Yes
Format settings, ReFrames : 4 frames
Codec ID : V_MPEG4/ISO/AVC
Duration : 1 h 49 min
Bit rate mode : Variable
Bit rate : 34.8 Mb/s
Maximum bit rate : 37.0 Mb/s
Width : 1 920 pixels
Height : 1 080 pixels
Display aspect ratio : 16:9
Frame rate mode : Constant
Frame rate : 23.976 (24000/1001) FPS
Color space : YUV
Chroma subsampling : 4:2:0
Bit depth : 8 bits
Scan type : Progressive
Bits/(Pixel*Frame) : 0.699
Stream size : 26.6 GiB (89%)
Language : English
Default : Yes
Forced : No
Audio #1
ID : 2
Format : AC-3
Format/Info : Audio Coding 3
Commercial name : Dolby Digital
Codec ID : A_AC3
Duration : 1 h 49 min
Bit rate mode : Constant
Bit rate : 448 kb/s
Channel(s) : 6 channels
Channel layout : L R C LFE Ls Rs
Sampling rate : 48.0 kHz
Frame rate : 31.250 FPS (1536 SPF)
Bit depth : 16 bits
Compression mode : Lossy
Stream size : 352 MiB (1%)
Title : Dub [License] - R5 Парадиз
Language : Russian
Service kind : Complete Main
Default : Yes
Forced : Yes
Audio #2
ID : 3
Format : DTS XLL
Format/Info : Digital Theater Systems
Commercial name : DTS-HD Master Audio
Codec ID : A_DTS
Duration : 1 h 49 min
Bit rate mode : Variable
Bit rate : 3 778 kb/s
Channel(s) : 6 channels
Channel layout : C L R Ls Rs LFE
Sampling rate : 48.0 kHz
Frame rate : 93.750 FPS (512 SPF)
Bit depth : 24 bits
Compression mode : Lossless
Stream size : 2.90 GiB (10%)
Title : Original
Language : English
Default : No
Forced : No
Text
ID : 4
Format : UTF-8
Codec ID : S_TEXT/UTF8
Codec ID/Info : UTF-8 Plain Text
Duration : 1 h 44 min
Bit rate : 80 b/s
Count of elements : 1685
Stream size : 61.2 KiB (0%)
Title : SDH
Language : English
Default : No
Forced : No
Menu
00:00:00.000 : en:Chapter 1
00:06:12.622 : en:Chapter 2
00:13:35.481 : en:Chapter 3
00:17:22.250 : en:Chapter 4
00:22:57.293 : en:Chapter 5
00:28:06.351 : en:Chapter 6
00:34:22.394 : en:Chapter 7
00:39:46.634 : en:Chapter 8
00:44:28.624 : en:Chapter 9
00:50:39.662 : en:Chapter 10
00:55:06.512 : en:Chapter 11
01:00:41.596 : en:Chapter 12
01:05:43.648 : en:Chapter 13
01:10:56.002 : en:Chapter 14
01:17:43.325 : en:Chapter 15
01:24:47.958 : en:Chapter 16
01:28:42.484 : en:Chapter 17
01:34:56.733 : en:Chapter 18
01:40:47.625 : en:Chapter 19
01:45:20.981 : en:Chapter 20-
-Релиз от: -
[free-tor.com].t19363.torrent 
Торрент: Зарегистрирован [ 2019-02-11 13:22 ] · F87194B1DE553104CAAAE8AB5145FCBA27DF7D26

Скачать .torrent

Скачать .torrent

39 KB

Статус: проверено
.torrent скачан: 7 раз
Размер: 29,89 GB
Правила
Похожие темы
[Профиль] [ЛС]
Показать сообщения:    
Ответить на тему

Текущее время: 25-Апр 23:49

Часовой пояс: UTC + 4



Вы не можете начинать темы
Вы не можете отвечать на сообщения
Вы не можете редактировать свои сообщения
Вы не можете удалять свои сообщения
Вы не можете голосовать в опросах
Вы не можете прикреплять файлы к сообщениям
Вы можете скачивать файлы
Анализ веб сайтов Яндекс.Метрика Рейтинг@Mail.ru