Человек, который убил Гитлера и затем снежного человека / The Man Who Killed Hitler and Then The Bigfoot (Роберт Д. Кржиковски) [2018, фантастика, драма, приключения, WEBRip 1080p | Sub]

Ответить на тему
Статистика раздачи [Обновить пиров]
Размер:  3,41 GB   |    Зарегистрирован:  1 месяц 5 дней   |    .torrent скачан:  6 раз
Сидов:  70  [  0 KB/s  ]   Личеров:  2  [  0 KB/s  ]   Подробная статистика пиров
 
   
 
 
Автор Сообщение

Skorp10n ®

Онлайн

 Активный раздающий 1 Активный раздающий 2
 Активный релизер 1000 Активный релизер 1500 Активный релизер 2000 Активный релизер 250 Активный релизер 3000 Активный релизер 500 Активный релизер 5000 Активный релизер Фильмов (1000) Активный релизер Фильмов (300) Активный релизер Фильмов (600) Активный Форумчанин 1 Активный Форумчанин 2 Активный Форумчанин 3 Активный Форумчанин 4 Друг трекера Карма 1000 Карма 1500 Карма 500 Меценат Ни дня без новостей Орденосец 1 степени Орденосец 2 степени Орденосец 3 степени Почетный орденосец Почетный репортер С Новым 2016 Годом! С Новым 2017 Годом! С Новым 2018 Годом! С Новым 2019 Годом! Супер Мега Контер Квейк ТОП-10

Пол: Мужской

Стаж: 3 года 7 месяцев

Наличие запрета:

Сообщений: 9373

Откуда: Free-Tor.com

Отдача: не определено

Загрузка: не определено

Нажми

Создавать темы 17-Фев-2019 18:05

[Цитировать]

Информация о фильме- Название: Человек, который убил Гитлера и затем снежного человека
Оригинальное название: The Man Who Killed Hitler and Then The Bigfoot
Год выхода: 2018
Жанр: Фантастика, драма, приключения
Режиссер: Роберт Д. Кржиковски
В ролях: Сэм Эллиотт, Эйдан Тёрнер, Рон Ливингстон, Шон Бриджерс, Кэйтлин Фицджералд, Ларри Миллер, Эллар Колтрейн, Ризван Манжи, Марк Стегер, Анастасия Циканава-О фильме:-Легендарный американский ветеран по имени Кельвин Барр в годы Второй мировой войны участвовал в боевых действиях и даже убил Адольфа Гитлера. Теперь же герой живёт тихой жизнью, однако страна вновь призывает его в строй. С ним связываются ФБР, чтобы выследить и уничтожить снежного человека, поскольку существо, прячущееся в глубине канадских лесов, является носителем вируса, который может вызвать эпидемию.- -Страна: США
Студия: Epic Pictures Releasing, Epic Pictures, Title Media
Продолжительность: 01:37:48
Перевод: СУБТИТРЫ-Файл-Кодек: AVC
Качество: WEBRip 1080p | The.Man.Who.Killed.Hitler.and.Then.the.Bigfoot.2018.1080p.WEB-DL.DD5.1.H264-FGT
Видео: MPEG-4 AVC, 4607 Kбит/с, 1920x798, 23.976 кадр/с
Звук: Аудио #1: Английский ( АС3, 6ch, 384 Кбит/с, 48.0 KHz)
Субтитры: Pусские (В.Шуравин, К.Колосов), английские-Релиз без Рекламы!-

MediaInfo

-Источник: The.Man.Who.Killed.Hitler.and.Then.the.Bigfoot.2018.1080p.WEB-DL.DD5.1.H264-FGT
General
Unique ID : 174337132008212036666407591949360949315 (0x83281C3C506AE1599E9F2670479FE843)
Complete name : The.Man.Who.Killed.Hitler.2018.WEB-DL.1080p.mkv
Format : Matroska
Format version : Version 4 / Version 2
File size : 3.41 GiB
Duration : 1 h 37 min
Overall bit rate : 4 993 kb/s
Encoded date : UTC 2019-02-16 18:56:56
Writing application : mkvmerge v7.1.0 ('Good Love') 64bit built on Jul 27 2014 13:06:55
Writing library : libebml v1.3.0 + libmatroska v1.4.1
Video
ID : 1
Format : AVC
Format/Info : Advanced Video Codec
Format profile : [email protected]
Format settings, CABAC : Yes
Format settings, RefFrames : 5 frames
Codec ID : V_MPEG4/ISO/AVC
Duration : 1 h 37 min
Bit rate : 4 607 kb/s
Width : 1 920 pixels
Height : 798 pixels
Display aspect ratio : 2.40:1
Frame rate mode : Constant
Frame rate : 23.976 (24000/1001) FPS
Color space : YUV
Chroma subsampling : 4:2:0
Bit depth : 8 bits
Scan type : Progressive
Bits/(Pixel*Frame) : 0.125
Stream size : 3.15 GiB (92%)
Language : English
Default : Yes
Forced : No
Color range : Limited
Color primaries : BT.709
Transfer characteristics : BT.709
Matrix coefficients : BT.709
Audio
ID : 2
Format : AC-3
Format/Info : Audio Coding 3
Format settings, Endianness : Big
Codec ID : A_AC3
Duration : 1 h 37 min
Bit rate mode : Constant
Bit rate : 384 kb/s
Channel(s) : 6 channels
Channel positions : Front: L C R, Side: L R, LFE
Sampling rate : 48.0 kHz
Frame rate : 31.250 FPS (1536 SPF)
Bit depth : 16 bits
Compression mode : Lossy
Stream size : 269 MiB (8%)
Language : English
Service kind : Complete Main
Default : Yes
Forced : No
Text #1
ID : 3
Format : UTF-8
Codec ID : S_TEXT/UTF8
Codec ID/Info : UTF-8 Plain Text
Duration : 1 h 30 min
Bit rate : 58 b/s
Count of elements : 812
Stream size : 38.9 KiB (0%)
Title : В.Шуравин, К.Колосов
Language : Russian
Default : Yes
Forced : Yes
Text #2
ID : 4
Format : UTF-8
Codec ID : S_TEXT/UTF8
Codec ID/Info : UTF-8 Plain Text
Duration : 1 h 30 min
Bit rate : 43 b/s
Count of elements : 1116
Stream size : 29.3 KiB (0%)
Language : English
Default : No
Forced : No
Menu
00:00:00.000 : en:1
00:10:27.418 : en:2
00:19:48.228 : en:3
00:29:54.292 : en:4
00:41:36.494 : en:5
00:53:59.277 : en:6
01:01:10.416 : en:7
01:11:07.137 : en:8
01:19:45.906 : en:9
01:31:55.593 : en:10-
-

Скриншоты

--
-
[free-tor.com].t19467.torrent 
Торрент: Зарегистрирован [ 2019-02-17 18:05 ] · A570EC508910324382C42DB1E5FF80B388727371

Скачать .torrent

Скачать .torrent

19 KB

Статус: проверено
.torrent скачан: 6 раз
Размер: 3,41 GB
Правила
Похожие темы
[Профиль] [ЛС]
Показать сообщения:    
Ответить на тему

Текущее время: 23-Мар 14:39

Часовой пояс: UTC + 4



Вы не можете начинать темы
Вы не можете отвечать на сообщения
Вы не можете редактировать свои сообщения
Вы не можете удалять свои сообщения
Вы не можете голосовать в опросах
Вы не можете прикреплять файлы к сообщениям
Вы можете скачивать файлы
Анализ веб сайтов Яндекс.Метрика Рейтинг@Mail.ru