Враг внутри / The Enemy Within (Ричард Дж. Льюис, Марк Пеллингтон, Маризоль Адлер, Лили Марийе) [01x01-04 из 12] [2019, драма, WEB-DLRip от OlLanDGroup | LostFilm]

Ответить на тему
Статистика раздачи [Обновить пиров]
Размер:  2,25 GB   |    Зарегистрирован:  2 часа 15 минут   |    .torrent скачан:  2 раза

Полного источника не было: Никогда

 
   
 
 
 
Автор Сообщение

Skorp10n ®

Онлайн

 Активный раздающий 1 Активный раздающий 2
 Активный релизер 1000 Активный релизер 1500 Активный релизер 2000 Активный релизер 250 Активный релизер 3000 Активный релизер 500 Активный релизер 5000 Активный релизер Фильмов (1000) Активный релизер Фильмов (300) Активный релизер Фильмов (600) Активный Форумчанин 1 Активный Форумчанин 2 Активный Форумчанин 3 Активный Форумчанин 4 Друг трекера Карма 1000 Карма 1500 Карма 500 Меценат Ни дня без новостей Орденосец 1 степени Орденосец 2 степени Орденосец 3 степени Почетный орденосец Почетный репортер С Новым 2016 Годом! С Новым 2017 Годом! С Новым 2018 Годом! С Новым 2019 Годом! Супер Мега Контер Квейк ТОП-10

Пол: Мужской

Стаж: 3 года 7 месяцев

Наличие запрета:

Сообщений: 9376

Откуда: Free-Tor.com

Отдача: не определено

Загрузка: не определено

Нажми

Создавать темы 14-Мар-2019 17:51

[Цитировать]

Информация о фильме- Название: Враг внутри
Оригинальное название: The Enemy Within
Год выхода: 2019
Жанр: драма-Режиссёр: Ричард Дж. Льюис, Марк Пеллингтон, Маризоль Адлер, Лили Марийе
В ролях: Дженнифер Карпентер (Erica Shepherd), Моррис Честнат (Will Keaton), Келли Гарнер (Kate Ryan), Ной Миллс (Jason Bragg), Раза Джеффри (Daniel Zain), Кассандра Фриман (Jacqueline Pettigrew), Джеймс Карпинелло (Anthony Cabrera), Ной Бин (Christopher Shepherd), Корал Пенья (Anna Cruz), София Геннуса (Hannah Shepherd)-О фильме: Эрику Шепард — бывшего агента ЦРУ и изменницу родины — освобождают из тюрьмы. Вместе с агентом ФБР Уиллом Китоном она должна будет найти опасного преступника, который хорошо ей знаком.--Страна: США
Студия: 82nd West, Universal TV
Продолжительность: ~ 00:43:00
Перевод: Профессиональный (многоголосый закадровый) Lostfilm-Файл-Кодек: XviD
Качество: WEB-DLRip | Чистый видеоряд |
Видео: 704x400 (1.76:1), 23.976 fps, XviD build 73 ~1599 kbps avg, 0.24 bit/pixel
Аудио #1: 48 kHz, MPEG Layer 3, 2 ch, ~128.00 kbps avg | RUS
Аудио #2: 48 kHz, MPEG Layer 3, 2 ch, ~128.00 kbps avg | ENG
Субтитры: Отсутствуют-Семпл-

Список серий

-01. Pilot / Пилот
02. Black Bear / Бурый барибал
03. The Ambassador's Wife / Жена посла
04. Confessions / Признания-
-

MediaInfo

-General
Complete name : D:Мои рипыThe.Enemy.Within.S01.WEB-DLRip.Lostfilm.OlLanDGroupThe.Enemy.Within.S01E01.Pilot.WEB-DLRip.Lostfilm.OlLanDGroup.avi
Format : AVI
Format/Info : Audio Video Interleave
File size : 585 MiB
Duration : 43 min 42 s
Overall bit rate : 1 870 kb/s
Writing application : VirtualDubMod 1.5.10.2 (build 2540/release)
Writing library : VirtualDubMod build 2540/release
Video
ID : 0
Format : MPEG-4 Visual
Format profile : Advanced [email protected]
Format settings : BVOP1 / Custom Matrix
Format settings, BVOP : 1
Format settings, QPel : No
Format settings, GMC : No warppoints
Format settings, Matrix : Custom
Codec ID : XVID
Codec ID/Hint : XviD
Duration : 43 min 42 s
Bit rate : 1 600 kb/s
Width : 704 pixels
Height : 400 pixels
Display aspect ratio : 16:9
Frame rate : 23.976 (24000/1001) FPS
Color space : YUV
Chroma subsampling : 4:2:0
Bit depth : 8 bits
Scan type : Progressive
Compression mode : Lossy
Bits/(Pixel*Frame) : 0.237
Stream size : 500 MiB (86%)
Writing library : XviD 73
Audio #1
ID : 1
Format : MPEG Audio
Format version : Version 1
Format profile : Layer 3
Codec ID : 55
Codec ID/Hint : MP3
Duration : 43 min 42 s
Bit rate mode : Constant
Bit rate : 128 kb/s
Channel(s) : 2 channels
Sampling rate : 48.0 kHz
Frame rate : 41.667 FPS (1152 SPF)
Compression mode : Lossy
Stream size : 40.0 MiB (7%)
Alignment : Aligned on interleaves
Interleave, duration : 42 ms (1.00 video frame)
Interleave, preload duration : 504 ms
Writing library : LAME3.99r
Encoding settings : -m s -V 4 -q 2 -lowpass 17 -b 128
Audio #2
ID : 2
Format : MPEG Audio
Format version : Version 1
Format profile : Layer 3
Codec ID : 55
Codec ID/Hint : MP3
Duration : 43 min 42 s
Bit rate mode : Constant
Bit rate : 128 kb/s
Channel(s) : 2 channels
Sampling rate : 48.0 kHz
Frame rate : 41.667 FPS (1152 SPF)
Compression mode : Lossy
Stream size : 40.0 MiB (7%)
Alignment : Aligned on interleaves
Interleave, duration : 42 ms (1.00 video frame)
Interleave, preload duration : 504 ms
Writing library : LAME3.99r
Encoding settings : -m s -V 4 -q 2 -lowpass 17 -b 128-
-

Скриншоты

--
-Релиз:
-
[free-tor.com].t20020.torrent 
Торрент: Зарегистрирован [ Сегодня, в 12:32 ] · A9399EEA5D29CF6EA9F8A1B461557AF4FDE4F9

Скачать .torrent

Скачать .torrent

13 KB

Статус: проверено
.torrent скачан: 2 раз
Размер: 2,25 GB
Правила
Похожие темы
[Профиль] [ЛС]
Показать сообщения:    
Ответить на тему

Текущее время: 23-Мар 14:48

Часовой пояс: UTC + 4



Вы не можете начинать темы
Вы не можете отвечать на сообщения
Вы не можете редактировать свои сообщения
Вы не можете удалять свои сообщения
Вы не можете голосовать в опросах
Вы не можете прикреплять файлы к сообщениям
Вы можете скачивать файлы
Анализ веб сайтов Яндекс.Метрика Рейтинг@Mail.ru