Великая битва / Ansiseong / The Great Battle (Кван Сик Ким) [2018, боевик, военный, история, драма, HDRip-AVC от OlLanDGroup | HDRezka Studio]

Ответить на тему
Статистика раздачи [Обновить пиров]
Размер:  1,9 GB   |    Зарегистрирован:  8 дней   |    .torrent скачан:  1 раз
Сидов:  71  [  0 KB/s  ]   Личеров:  16  [  0 KB/s  ]   Подробная статистика пиров
 
   
 
 
Автор Сообщение

Skorp10n ®

Оффлайн

 Активный раздающий 1 Активный раздающий 2
 Активный релизер 1000 Активный релизер 1500 Активный релизер 2000 Активный релизер 250 Активный релизер 3000 Активный релизер 500 Активный релизер 5000 Активный релизер Фильмов (1000) Активный релизер Фильмов (300) Активный релизер Фильмов (600) Активный Форумчанин 1 Активный Форумчанин 2 Активный Форумчанин 3 Активный Форумчанин 4 Друг трекера Карма 1000 Карма 1500 Карма 500 Меценат Ни дня без новостей Орденосец 1 степени Орденосец 2 степени Орденосец 3 степени Почетный орденосец Почетный репортер С Новым 2016 Годом! С Новым 2017 Годом! С Новым 2018 Годом! С Новым 2019 Годом! Супер Мега Контер Квейк ТОП-10

Пол: Мужской

Стаж: 3 года 7 месяцев

Наличие запрета:

Сообщений: 9369

Откуда: Free-Tor.com

Отдача: не определено

Загрузка: не определено

Нажми

Создавать темы 14-Мар-2019 23:34

[Цитировать]

Великая битва / Ansiseong / The Great Battle
«Fight to the Death»
- Год выпуска: 2018
Страна: Южная Корея
Производство: Next Entertainment World, Soojak Films
Жанр: Боевик, военный, история, драма-Режиссёр: Кван Сик Ким
В ролях: Ин Сон Чо, Чжу Хёк Нам, Сон Ун Пак, Сон У Пэ, Тхэ Гу Ом, Соль Хён Ким, Бён Ын Пак, Дэ Хван О, Дон Иль Сон, Ын Чхэ Чон, Гван Чан, Хве Хён Ё, Стефани Ли, Ин Гём Чон, О Сон Ю, Ук Ким, Ю Рам Син, Чон Рэ Ю, Сок Тхэ Чу, Чжи Хун Чон (I)-Перевод: Профессиональный многоголосый | [HDRezka Studio]
Субтитры: Русские (полные)
Реклама: Отсутствует-Описание: Ли Шиминь, император династии Тан, после разгрома в 630 году Восточно-тюркского каганата решил покорить Когурё, одно из раннекорейских государств. Завоевательный поход императора был успешным: крепости пали одна за другой, китайская армия разбивала пехоту и конницу противника. Побеждённый в одной из битв генерал Ён посылает кадета Са-муля убить предателя Ян Ман-чхуна, коменданта крепости Анси. В 645 году Ли Шиминь подошел к Анси. Имея подавляющее численное преимущество, император считал, что взятие крепости — дело одного дня, но генерал Ян Ман-чхун с немногочисленными солдатами армии Когурё будет любой ценой держать оборону крепости Анси — последнего рубежа на пути к Пхеньяну.- -Качество: HDRip-AVC | BDRip 1080p | The.Great.Battle.2018.BluRay.1080p.x264.DTS-HD.MA.5.1-HDChina
Продолжительность: 02:16:07-Формат: MKV
Видео кодек: MPEG-4 AVC
Аудио кодек: AC3
Видео: 1024x428 (2.40:1), 24,000 fps, x264 ~1 813 kbps avg, 0.172 bit/pixel
Аудио #1: 48 kHz, AC3 Dolby Digital, 2 (L,R) ch, ~192.00 kbps avg | RUS (HDRezka Studio)-Дата премьеры (мир): 19 сентября 2018
Дата премьеры (РФ):
Цифровой релиз:
-Релиз от: Rip by: -

MediaInfo

-Общее
Уникальный идентификатор : 131519485114811704684320880676844974551 (0x62F1BB414F58C04E91AF0A9B98D1B1D7)
Полное имя : F:OlLanDGroupThe.Great.Battle.2018.BDRip(AVC).OllanDGroup.mkv
Формат : Matroska
Версия формата : Version 4 / Version 2
Размер файла : 1,90 Гбайт
Продолжительность : 2 ч. 16 м.
Общий поток : 2002 Кбит/сек
Название фильма : The.Great.Battle.2018 #TorpedoUK#
Дата кодирования : UTC 2019-03-14 16:32:30
Программа кодирования : mkvmerge v29.0.0 ('Like It Or Not') 64-bit
Библиотека кодирования : libebml v1.3.6 + libmatroska v1.4.9
Видео
Идентификатор : 1
Формат : AVC
Формат/Информация : Advanced Video Codec
Профиль формата : [email protected]
Параметр CABAC формата : Да
Параметр ReFrames формата : 10 кадров
Идентификатор кодека : V_MPEG4/ISO/AVC
Продолжительность : 2 ч. 16 м.
Битрейт : 1813 Кбит/сек
Ширина : 1024 пикселя
Высота : 428 пикселей
Соотношение сторон : 2,40:1
Режим частоты кадров : Постоянный
Частота кадров : 24,000 кадра/сек
Цветовое пространство : YUV
Субдискретизация насыщенности : 4:2:0
Битовая глубина : 8 бит
Тип развёртки : Прогрессивная
Бит/(Пиксели*Кадры) : 0.172
Размер потока : 1,72 Гбайт (90%)
Библиотека кодирования : x264 core 146 r2538 121396c
Настройки программы : cabac=1 / ref=10 / deblock=1:-2:-3 / analyse=0x3:0x113 / me=umh / subme=11 / psy=1 / psy_rd=0.95:0.07 / mixed_ref=1 / me_range=48 / chroma_me=1 / trellis=2 / 8x8dct=1 / cqm=0 / deadzone=21,11 / fast_pskip=1 / chroma_qp_offset=-3 / threads=6 / lookahead_threads=1 / sliced_threads=0 / nr=0 / decimate=1 / interlaced=0 / bluray_compat=0 / constrained_intra=0 / bframes=11 / b_pyramid=2 / b_adapt=2 / b_bias=0 / direct=3 / weightb=1 / open_gop=0 / weightp=2 / keyint=240 / keyint_min=24 / scenecut=40 / intra_refresh=0 / rc_lookahead=40 / rc=2pass / mbtree=0 / bitrate=1813 / ratetol=1.0 / qcomp=0.60 / qpmin=0 / qpmax=69 / qpstep=4 / cplxblur=20.0 / qblur=0.5 / vbv_maxrate=50000 / vbv_bufsize=62500 / nal_hrd=none / filler=0 / ip_ratio=1.40 / pb_ratio=1.30 / aq=1:1.00
Язык : English
Default : Да
Forced : Нет
Аудио
Идентификатор : 2
Формат : AC-3
Формат/Информация : Audio Coding 3
Расширение режима : CM (complete main)
Параметр Endianness формата : Big
Идентификатор кодека : A_AC3
Продолжительность : 2 ч. 16 м.
Вид битрейта : Постоянный
Битрейт : 192 Кбит/сек
Каналы : 2 канала
Расположение каналов : Front: L R
Частота : 48,0 КГц
Частота кадров : 31,250 кадров/сек (1536 spf)
Битовая глубина : 16 бит
Метод сжатия : С потерями
Размер потока : 187 Мбайт (10%)
Заголовок : MVO [HDRezka Studio]
Язык : Russian
Default : Да
Forced : Нет
Текст
Идентификатор : 3
Формат : UTF-8
Идентификатор кодека : S_TEXT/UTF8
Идентификатор кодека/Информация : UTF-8 Plain Text
Продолжительность : 2 ч. 12 м.
Битрейт : 44 бит/сек
Count of elements : 933
Размер потока : 43,0 Кбайт (0%)
Заголовок : Full
Язык : Russian
Default : Нет
Forced : Нет
Меню
00:00:00.000 : :00:00:00.000
00:10:09.708 : :00:10:09.708
00:20:26.750 : :00:20:26.750
00:29:07.708 : :00:29:07.708
00:38:23.250 : :00:38:23.250
00:48:05.542 : :00:48:05.542
01:00:10.917 : :01:00:10.917
01:15:59.083 : :01:15:59.083
01:25:44.292 : :01:25:44.292
01:33:48.333 : :01:33:48.333
01:44:57.750 : :01:44:57.750
01:55:34.125 : :01:55:34.125
02:12:26.125 : :02:12:26.125-
-

Скриншоты

--
-
[free-tor.com].t20028.torrent 
Торрент: Зарегистрирован [ 2019-03-14 23:34 ] · DDA52B84858930ED5E5CC4322714743703AD878A

Скачать .torrent

Скачать .torrent

20 KB

Статус: проверено
.torrent скачан: 1 раз
Размер: 1,9 GB
Правила
Похожие темы
[Профиль] [ЛС]
Показать сообщения:    
Ответить на тему

Текущее время: 23-Мар 14:18

Часовой пояс: UTC + 4



Вы не можете начинать темы
Вы не можете отвечать на сообщения
Вы не можете редактировать свои сообщения
Вы не можете удалять свои сообщения
Вы не можете голосовать в опросах
Вы не можете прикреплять файлы к сообщениям
Вы можете скачивать файлы
Анализ веб сайтов Яндекс.Метрика Рейтинг@Mail.ru