Любовь, смерть и роботы / Love, Death & Robots (Тим Миллер) [S01] [2019, мультфильм, ужасы, фантастика, фэнтези, комедия, боевик, криминал, WEB-DLRip от OlLanDGroup | BTI Studios & Пифагор]

Ответить на тему
Статистика раздачи [Обновить пиров]
Размер:  2,97 GB   |    Зарегистрирован:  1 месяц   |    .torrent скачан:  6 раз
Сидов:  194  [  0 KB/s  ]   Личеров:  37  [  0 KB/s  ]   Подробная статистика пиров
 
   
 
 
Автор Сообщение

Skorp10n ®

Оффлайн

 Активный раздающий 1 Активный раздающий 2
 Активный релизер 1000 Активный релизер 1500 Активный релизер 2000 Активный релизер 250 Активный релизер 3000 Активный релизер 500 Активный релизер 5000 Активный релизер Фильмов (1000) Активный релизер Фильмов (300) Активный релизер Фильмов (600) Активный Форумчанин 1 Активный Форумчанин 2 Активный Форумчанин 3 Активный Форумчанин 4 Друг трекера Карма 1000 Карма 1500 Карма 3000 Карма 500 Меценат Ни дня без новостей Орденосец 1 степени Орденосец 2 степени Орденосец 3 степени Почетный орденосец Почетный репортер С Новым 2016 Годом! С Новым 2017 Годом! С Новым 2018 Годом! С Новым 2019 Годом! Супер Мега Контер Квейк ТОП-10

Пол: Мужской

Стаж: 3 года 8 месяцев

Наличие запрета:

Сообщений: 9826

Откуда: Free-Tor.com

Отдача: не определено

Загрузка: не определено

Нажми

Создавать темы 20-Мар-2019 11:45

[Цитировать]

Информация о фильме- Название: Любовь, смерть и роботы
Оригинальное название: Love, Death & Robots
Год выпуска: 2019
Жанр: мультфильм, ужасы, фантастика, фэнтези, комедия, боевик, криминал-Режиссер: Тим Миллер
В ролях: Нолан Норт (Ugly Dave, озвучка), Мэттью Кинг (Adult Liang, озвучка), Джош Бренер (K-VRC, озвучка), Генри Даутуэйт (Thom, озвучка), Грэхэм Хэмилтон (Decker, озвучка), Эмили О’Брайэн (The Woman, озвучка), Хелен Сэдлер (Sonnie, озвучка), Илэйн Тан (Adult Yan), Адам Бартли (Sobieski, озвучка), Мэделин Найт (Greta, озвучка), Хейли МакЛафлин (Jennifer, озвучка), Андре Соглиуззо (Pearly, озвучка)-О фильме: Проект Любовь, смерть и роботы - это отдельный вид искусства. Сериал представляет собой великолепную смесь историй, представленных в совершенно различных жанрах. Здесь вас ожидает столкновение с классическими элементами научной фантастики, необычным юмором, удивительным фэнтезийным миром и по-настоящему пробирающим до мурашек ужасом. Каждый из персонажей в проекте покажется вам странным, как минимум. Здесь происходит настоящий вынос мозга, к которому никак не привыкнуть и не подготовиться. Если вы готовы смотреть историю, где в центре внимания оказываются молочные продукты, неожиданно ожившие после загадочных обстоятельств, безумные роботы, стремящиеся захватить мир и солдаты, способные обращаться в животных, то добро пожаловать к экранам! Перед вами потрясающая история, которая обязательно придётся по душе всем поклонникам безумств и абсурда!- -Страна: США
Студия: Blur Studio, NetFlix
Продолжительность: ~00:11:00-00:17:00 серия
Перевод: Профессиональный (дублированный) BTI Studios & Пифагор по заказу Netflix-Файл-Кодек: XviD
Качество: WEB-DLRip
Видео: 704x352 (2.00:1), 24 fps, XviD build 73 ~1600 kbps avg, 0.269 bit/pixel
Аудио #1: 48 kHz, MPEG Layer 3, 2 ch, ~128.00 kbps avg | RUS | BTI Studios & Пифагор
Аудио #2: 48 kHz, MPEG Layer 3, 2 ch, ~128.00 kbps avg | ENG
Субтитры: Русские (полные) - отдельно-

MediaInfo:

-General
Complete name : D:Мои рипыLove.Death.and.Robots.S01.WEB-DLRip.DUB.OlLanDGroupLove.Death.and.Robots.S01E01.Sonnies.Edge.WEB-DLRip.DUB.OlLanDGroup.avi
Format : AVI
Format/Info : Audio Video Interleave
File size : 231 MiB
Duration : 17 min 14 s
Overall bit rate : 1 870 kb/s
Writing application : VirtualDubMod 1.5.10.2 (build 2540/release)
Writing library : VirtualDubMod build 2540/release
Video
ID : 0
Format : MPEG-4 Visual
Format profile : Advanced [email protected]
Format settings : BVOP1 / Custom Matrix
Format settings, BVOP : 1
Format settings, QPel : No
Format settings, GMC : No warppoints
Format settings, Matrix : Custom
Codec ID : XVID
Codec ID/Hint : XviD
Duration : 17 min 14 s
Bit rate : 1 600 kb/s
Width : 704 pixels
Height : 352 pixels
Display aspect ratio : 2.000
Frame rate : 24.000 FPS
Color space : YUV
Chroma subsampling : 4:2:0
Bit depth : 8 bits
Scan type : Progressive
Compression mode : Lossy
Bits/(Pixel*Frame) : 0.269
Stream size : 197 MiB (86%)
Writing library : XviD 73
Audio #1
ID : 1
Format : MPEG Audio
Format version : Version 1
Format profile : Layer 3
Codec ID : 55
Codec ID/Hint : MP3
Duration : 17 min 14 s
Bit rate mode : Constant
Bit rate : 128 kb/s
Channel(s) : 2 channels
Sampling rate : 48.0 kHz
Frame rate : 41.667 FPS (1152 SPF)
Compression mode : Lossy
Stream size : 15.8 MiB (7%)
Alignment : Aligned on interleaves
Interleave, duration : 42 ms (1.00 video frame)
Interleave, preload duration : 504 ms
Writing library : LAME3.99r
Encoding settings : -m s -V 4 -q 2 -lowpass 17 -b 128
Audio #2
ID : 2
Format : MPEG Audio
Format version : Version 1
Format profile : Layer 3
Codec ID : 55
Codec ID/Hint : MP3
Duration : 17 min 14 s
Bit rate mode : Constant
Bit rate : 128 kb/s
Channel(s) : 2 channels
Sampling rate : 48.0 kHz
Frame rate : 41.667 FPS (1152 SPF)
Compression mode : Lossy
Stream size : 15.8 MiB (7%)
Alignment : Aligned on interleaves
Interleave, duration : 42 ms (1.00 video frame)
Interleave, preload duration : 504 ms
Writing library : LAME3.99r
Encoding settings : -m s -V 4 -q 2 -lowpass 17 -b 128-
-Семпл-

Список серий

-01. Хищники Сонни / Sonnie's Edge
02. Три робота / Three Robots
03. Свидетель / The Witness
04. Сгодится / Suits
05. Высасывающий души / Sucker of Souls
06. Когда йогурт победил / When The Yogurt Took Over
07. За пределами разлома Орла / Beyond the Aquila Rift
08. Удачной охоты / Good Hunting
09. Свалка / The Dump
10. Оборотни / Shape-Shifters
11. Рука помощи / Helping Hand
12. Ночная рыбка / Fish Night
13. Везунчик 13 / Lucky 13
14. Синий Зима / Zima Blue
15. Слепая зона / Blind Spot
16. Ледниковый период / Ice Age
17. Альтернативные истории / Alternate Histories
18. Тайная война / Secret War-
-

Скриншоты

--
-Релиз: Skandar-Исходник:
-
[free-tor.com].t20131.torrent 
Торрент: Зарегистрирован [ 2019-03-20 11:45 ] · 39A8BDD8E3D02EA60A092072D4E0C93A8FFE84D7

Скачать .torrent

Скачать .torrent

20 KB

Статус: проверено
.torrent скачан: 6 раз
Размер: 2,97 GB
Правила
Похожие темы
[Профиль] [ЛС]
Показать сообщения:    
Ответить на тему

Текущее время: 20-Апр 16:32

Часовой пояс: UTC + 4



Вы не можете начинать темы
Вы не можете отвечать на сообщения
Вы не можете редактировать свои сообщения
Вы не можете удалять свои сообщения
Вы не можете голосовать в опросах
Вы не можете прикреплять файлы к сообщениям
Вы можете скачивать файлы
Анализ веб сайтов Яндекс.Метрика Рейтинг@Mail.ru