Капернаум / Capharnaüm (Надин Лабаки / Nadine Labaki) [2018, драма, BDRip 720p от Scarabey | iTunes]

Ответить на тему
Статистика раздачи [Обновить пиров]
Размер:  6,2 GB   |    Зарегистрирован:  25 дней   |    .torrent скачан:  4 раза
Сидов:  380  [  0 KB/s  ]   Личеров:  16  [  0 KB/s  ]   Подробная статистика пиров
 
   
 
 
Автор Сообщение

Skorp10n ®

Оффлайн

 Активный раздающий 1 Активный раздающий 2
 Активный релизер 1000 Активный релизер 1500 Активный релизер 2000 Активный релизер 250 Активный релизер 3000 Активный релизер 500 Активный релизер 5000 Активный релизер Фильмов (1000) Активный релизер Фильмов (300) Активный релизер Фильмов (600) Активный Форумчанин 1 Активный Форумчанин 2 Активный Форумчанин 3 Активный Форумчанин 4 Друг трекера Карма 1000 Карма 1500 Карма 3000 Карма 500 Меценат Ни дня без новостей Орденосец 1 степени Орденосец 2 степени Орденосец 3 степени Почетный орденосец Почетный репортер С Новым 2016 Годом! С Новым 2017 Годом! С Новым 2018 Годом! С Новым 2019 Годом! Супер Мега Контер Квейк ТОП-10

Пол: Мужской

Стаж: 3 года 8 месяцев

Наличие запрета:

Сообщений: 9815

Откуда: Free-Tor.com

Отдача: не определено

Загрузка: не определено

Нажми

Создавать темы 24-Мар-2019 11:58

[Цитировать]

Год выпуска: 2018
Страна: Ливан, Франция, США
Жанр: драма
Продолжительность: 01:44:54
Перевод: Профессиональный (полное дублирование) [iTunes]
Cубтитры: нет-Режиссёр: Надин Лабаки / Nadine Labaki-В ролях: Зейн Аль Раффеа, Йорданос Шифероу, Болуватифе Трэжа Банкоул, Кавсар Аль Хаддад, Фади Юзеф, Хаита «Седра» Иззам, Алаа Чучнье, Надин Лабаки, Елиас Хури, Нур Эль Хуссейни-Описание: Двенадцатилетний Зейн не может точно ответить на вопрос, сколько у него братьев и сестер, но уверен, что детей в его семье должно было быть меньше. Несмотря на юный возраст, Зейн нелегально работает, следит за младшими, помогает старшим, ищет деньги и документы на эмиграцию в Швецию. Он смотрит на мир с нескрываемой ненавистью. Ему есть что ненавидеть. Дети на улицах Бейрута попрошайничают, едят посыпанный сахаром лед и чипсы, девочек как можно раньше продают замуж, сам он вынужден есть что попало, спать, где придется, и самое главное — он только что получил пятилетний срок. В тюрьме Зейн подаёт в суд на родителей. За то, что они дали ему жизнь.--Качество видео: BDRip 720p
Формат видео: MKV-Видео: 1280х538, 23.976 fps, AVC, ~6342 kbps avg
Аудио: 48 kHz, AC3 Dolby Digital, 3/2 (L,C,R,l,r) + LFE ch, ~384 kbps-Релиз от: -

MI

-General
Unique ID : 237534349744438881923211968028777797907 (0xB2B373A29156112C9EB8A01533365913)
Complete name : Capharnaum_2018 720p_BDRip_[scarabey.org].mkv
Format : Matroska
Format version : Version 4
File size : 6.20 GiB
Duration : 2 h 6 min
Overall bit rate : 7 013 kb/s
Movie name : Nadine Labaki - Capharnaüm (2018)
Encoded date : UTC 2019-03-22 21:15:36
Writing application : mkvmerge v6.1.0 ('Old Devil') built on Mar 4 2013 09:10:42
Writing library : libebml v1.3.0 + libmatroska v1.4.0
Video
ID : 1
Format : AVC
Format/Info : Advanced Video Codec
Format profile : [email protected]
Format settings : CABAC / 12 Ref Frames
Format settings, CABAC : Yes
Format settings, ReFrames : 12 frames
Codec ID : V_MPEG4/ISO/AVC
Duration : 2 h 6 min
Bit rate : 6 489 kb/s
Width : 1 280 pixels
Height : 538 pixels
Display aspect ratio : 2.40:1
Frame rate mode : Constant
Frame rate : 23.976 (24000/1001) FPS
Color space : YUV
Chroma subsampling : 4:2:0
Bit depth : 8 bits
Scan type : Progressive
Bits/(Pixel*Frame) : 0.393
Stream size : 5.73 GiB (93%)
Title : -EA
Writing library : x264 core 157 r2935 545de2f
Encoding settings : cabac=1 / ref=12 / deblock=1:-3:-3 / analyse=0x3:0x113 / me=umh / subme=10 / psy=1 / psy_rd=1.02:0.00 / mixed_ref=1 / me_range=32 / chroma_me=1 / trellis=2 / 8x8dct=1 / cqm=0 / deadzone=21,11 / fast_pskip=0 / chroma_qp_offset=-2 / threads=17 / lookahead_threads=2 / sliced_threads=0 / nr=0 / decimate=0 / interlaced=0 / bluray_compat=0 / constrained_intra=0 / bframes=8 / b_pyramid=2 / b_adapt=2 / b_bias=0 / direct=3 / weightb=1 / open_gop=0 / weightp=2 / keyint=240 / keyint_min=23 / scenecut=40 / intra_refresh=0 / rc_lookahead=60 / rc=crf / mbtree=0 / crf=17.6 / qcomp=0.65 / qpmin=0 / qpmax=69 / qpstep=4 / vbv_maxrate=62500 / vbv_bufsize=78125 / crf_max=0.0 / nal_hrd=none / filler=0 / ip_ratio=1.40 / pb_ratio=1.30 / aq=3:0.85
Language : Arabic
Default : Yes
Forced : No
Color range : Limited
Color primaries : BT.709
Transfer characteristics : BT.709
Matrix coefficients : BT.709
Audio
ID : 2
Format : AC-3
Format/Info : Audio Coding 3
Commercial name : Dolby Digital
Codec ID : A_AC3
Duration : 2 h 6 min
Bit rate mode : Constant
Bit rate : 384 kb/s
Channel(s) : 6 channels
Channel layout : L R C LFE Ls Rs
Sampling rate : 48.0 kHz
Frame rate : 31.250 FPS (1536 SPF)
Bit depth : 16 bits
Compression mode : Lossy
Stream size : 347 MiB (5%)
Title : Дубляж - iTunes
Language : Russian
Service kind : Complete Main
Default : Yes
Forced : No
Menu
00:00:00.000 : :Chapter 01
00:08:13.076 : :Chapter 02
00:14:51.808 : :Chapter 03
00:21:46.680 : :Chapter 04
00:29:05.827 : :Chapter 05
00:38:07.035 : :Chapter 06
00:46:42.133 : :Chapter 07
00:55:30.452 : :Chapter 08
01:03:45.405 : :Chapter 09
01:11:39.629 : :Chapter 10
01:19:21.215 : :Chapter 11
01:27:07.305 : :Chapter 12
01:36:28.241 : :Chapter 13
01:45:19.313 : :Chapter 14
01:54:02.044 : :Chapter 15
02:00:48.658 : :Chapter 16-
-

Скриншоты

--
-
[free-tor.com].t20229.torrent 
Торрент: Зарегистрирован [ 2019-03-24 11:58 ] · F6F08C98A6EA18DF51D75E36D4B9DDB4B4F1C51F

Скачать .torrent

Скачать .torrent

32 KB

Статус: проверено
.torrent скачан: 4 раз
Размер: 6,2 GB
Правила
Похожие темы
[Профиль] [ЛС]
Показать сообщения:    
Ответить на тему

Текущее время: 19-Апр 04:18

Часовой пояс: UTC + 4



Вы не можете начинать темы
Вы не можете отвечать на сообщения
Вы не можете редактировать свои сообщения
Вы не можете удалять свои сообщения
Вы не можете голосовать в опросах
Вы не можете прикреплять файлы к сообщениям
Вы можете скачивать файлы
Анализ веб сайтов Яндекс.Метрика Рейтинг@Mail.ru