Голем: Начало / The Golem (Дорон Пас, Йоав Пас) [2018, ужасы, WEB-DL 1080p от ExKinoRay | HDRezka Studio]

Ответить на тему
Статистика раздачи [Обновить пиров]
Размер:  3,45 GB   |    Зарегистрирован:  26 дней   |    .torrent скачан:  4 раза
Сидов:  268  [  0 KB/s  ]   Личеров:  14  [  0 KB/s  ]   Подробная статистика пиров
 
   
 
 
Автор Сообщение

Skorp10n ®

Оффлайн

 Активный раздающий 1 Активный раздающий 2
 Активный релизер 1000 Активный релизер 1500 Активный релизер 2000 Активный релизер 250 Активный релизер 3000 Активный релизер 500 Активный релизер 5000 Активный релизер Фильмов (1000) Активный релизер Фильмов (300) Активный релизер Фильмов (600) Активный Форумчанин 1 Активный Форумчанин 2 Активный Форумчанин 3 Активный Форумчанин 4 Друг трекера Карма 1000 Карма 1500 Карма 3000 Карма 500 Меценат Ни дня без новостей Орденосец 1 степени Орденосец 2 степени Орденосец 3 степени Почетный орденосец Почетный репортер С Новым 2016 Годом! С Новым 2017 Годом! С Новым 2018 Годом! С Новым 2019 Годом! Супер Мега Контер Квейк ТОП-10

Пол: Мужской

Стаж: 3 года 8 месяцев

Наличие запрета:

Сообщений: 9826

Откуда: Free-Tor.com

Отдача: не определено

Загрузка: не определено

Нажми

Создавать темы 25-Мар-2019 14:00

[Цитировать]

Название: Голем: Начало
Оригинальное название: The Golem
Год выпуска: 2018
Жанр: Ужасы
Режиссер: Дорон Пас, Йоав Пас
В ролях: Хани Фюрстенберг, Ишай Голан, Брини Фюрстенберг, Эди Кветнер, Ленни Равич, Ольга Сафронова-Описание:-Литва, 1673 год. Селянка Ханна уже семь лет скорбит об умершем сыне и находит утешение в изучении священных еврейских писаний. Когда её деревне начинает угрожать опасность вторжения, Ханна решает провести магический ритуал и создаёт чудовище - голема. Последствия этого неоднозначного поступка коснутся всех местных жителей.- -Выпущено: Израиль, PSB Films
Продолжительность: 01:34:46
Перевод: Профессиональный (многоголосый, закадровый) | HDRezka Studio-БЕЗ КАКОЙ-ЛИБО РЕКЛАМЫ!-Формат: MKV
Качество: WEB-DL 1080p
Видео: MPEG-4 AVC, 1908x792 (2.40:1), 23.976 fps, 4465 Kbps, 0.123 bit/pixel
Аудио 1: 48 kHz, AC3, 2.0, 256 Kbps | MVO | RUS |
Аудио 2: 48 kHz, AC3, 5.1, 384 Kbps | Оригинал | ENG | -

ОтчетМедиаИнфо

-General
Unique ID : 235878420046906987408871926682243414890 (0xB17487FF5D68E27E818DBD21398DBB6A)
Complete name : D:The.Golem.2018.MVO.1080p.WEB-DL.ExKinoRay.mkv
Format : Matroska
Format version : Version 2
File size : 3.45 GiB
Duration : 1 h 34 min
Overall bit rate : 5 208 kb/s
Movie name : The Golem 2018 from ExKinoRay
Encoded date : UTC 2019-03-25 03:49:27
Writing application : mkvmerge v5.6.0 ('Kenya Kane') built on May 27 2012 16:44:04
Writing library : libebml v1.2.3 + libmatroska v1.3.0
Video
ID : 1
Format : AVC
Format/Info : Advanced Video Codec
Format profile : [email protected]
Format settings, CABAC : Yes
Format settings, ReFrames : 5 frames
Codec ID : V_MPEG4/ISO/AVC
Duration : 1 h 34 min
Bit rate : 4 465 kb/s
Width : 1 908 pixels
Height : 792 pixels
Display aspect ratio : 2.40:1
Frame rate mode : Constant
Frame rate : 23.976 (24000/1001) FPS
Color space : YUV
Chroma subsampling : 4:2:0
Bit depth : 8 bits
Scan type : Progressive
Bits/(Pixel*Frame) : 0.123
Stream size : 2.96 GiB (86%)
Title : The.Golem.2018.1080p.WEB-DL
Language : English
Default : Yes
Forced : No
Color range : Limited
Color primaries : BT.709
Transfer characteristics : BT.709
Matrix coefficients : BT.709
Audio #1
ID : 2
Format : AC-3
Format/Info : Audio Coding 3
Mode extension : CM (complete main)
Format settings, Endianness : Big
Codec ID : A_AC3
Duration : 1 h 34 min
Bit rate mode : Constant
Bit rate : 256 kb/s
Channel(s) : 2 channels
Channel positions : Front: L R
Sampling rate : 48.0 kHz
Frame rate : 31.250 FPS (1536 spf)
Compression mode : Lossy
Delay relative to video : -42 ms
Stream size : 174 MiB (5%)
Title : MVO (HDRezka Studio)
Language : Russian
Default : No
Forced : No
Audio #2
ID : 3
Format : AC-3
Format/Info : Audio Coding 3
Mode extension : CM (complete main)
Format settings, Endianness : Big
Codec ID : A_AC3
Duration : 1 h 34 min
Bit rate mode : Constant
Bit rate : 384 kb/s
Channel(s) : 6 channels
Channel positions : Front: L C R, Side: L R, LFE
Sampling rate : 48.0 kHz
Frame rate : 31.250 FPS (1536 spf)
Compression mode : Lossy
Delay relative to video : -42 ms
Stream size : 260 MiB (7%)
Language : English
Default : No
Forced : No
Text
ID : 4
Format : UTF-8
Codec ID : S_TEXT/UTF8
Codec ID/Info : UTF-8 Plain Text
Title : SDH
Language : English
Default : No
Forced : No
Menu
00:00:00.000 : en:1
00:03:47.000 : en:2
00:13:59.000 : en:3
00:24:31.000 : en:4
00:33:37.000 : en:5
00:44:21.000 : en:6
00:54:20.000 : en:7
01:05:46.000 : en:8
01:15:44.000 : en:9
01:23:34.000 : en:10
01:31:32.000 : en:11-
-

Скриншоты

--
-Релиз от: -Автор релиза: -
[free-tor.com].t20248.torrent 
Торрент: Зарегистрирован [ 2019-03-25 14:00 ] · F74B528426C9D1346B9AC2E2E84FA7063849B8F5

Скачать .torrent

Скачать .torrent

18 KB

Статус: проверено
.torrent скачан: 4 раз
Размер: 3,45 GB
Правила
Roki19(25-Мар-19)
Похожие темы
[Профиль] [ЛС]
Показать сообщения:    
Ответить на тему

Текущее время: 20-Апр 16:15

Часовой пояс: UTC + 4



Вы не можете начинать темы
Вы не можете отвечать на сообщения
Вы не можете редактировать свои сообщения
Вы не можете удалять свои сообщения
Вы не можете голосовать в опросах
Вы не можете прикреплять файлы к сообщениям
Вы можете скачивать файлы
Анализ веб сайтов Яндекс.Метрика Рейтинг@Mail.ru