Всё к лучшему / Перемены / Better Things (Памела Адлон, Луис С.К.) [03х01-11 из 12] [2019, драма, комедия, WEBRip 1080p | TVShows]

Ответить на тему
Статистика раздачи [Обновить пиров]
Размер:  20,6 GB   |    Зарегистрирован:  7 дней   |    .torrent скачан:  1 раз
Сидов:  3  [  0 KB/s  ]   Личеров:  3  [  0 KB/s  ]   Подробная статистика пиров
 
   
 
 
Автор Сообщение

Skorp10n ®

Оффлайн

 Активный раздающий 1 Активный раздающий 2
 Активный релизер 1000 Активный релизер 1500 Активный релизер 2000 Активный релизер 250 Активный релизер 3000 Активный релизер 500 Активный релизер 5000 Активный релизер Фильмов (1000) Активный релизер Фильмов (300) Активный релизер Фильмов (600) Активный Форумчанин 1 Активный Форумчанин 2 Активный Форумчанин 3 Активный Форумчанин 4 Друг трекера Карма 1000 Карма 1500 Карма 3000 Карма 500 Меценат Ни дня без новостей Орденосец 1 степени Орденосец 2 степени Орденосец 3 степени Почетный орденосец Почетный репортер С Новым 2016 Годом! С Новым 2017 Годом! С Новым 2018 Годом! С Новым 2019 Годом! Супер Мега Контер Квейк ТОП-10

Пол: Мужской

Стаж: 3 года 9 месяцев

Наличие запрета:

Сообщений: 10472

Откуда: Free-Tor.com

Отдача: не определено

Загрузка: не определено

Нажми

Создавать темы 15-Май-2019 12:25

[Цитировать]

Всё к лучшему / Better Things- Страна: США
Производство: 3 Arts Entertainment, FX Productions, Pig Newton, Slam Book
Год выпуска: 2019
Жанр: драма, комедия
Продолжительность: х ~00:28:00-Режиссеры: Памела Адлон, Луис С.К.
В ролях: Памела Адлон, Ханна Аллигуд, Оливия Эдвард, Селия Имри, Мики Мэдисон, Дидрих Бадер, Янина Гаванкар, Кевин Поллак, Мэттью Глэйв-Описание: Жизнь матери-одиночки всегда сложна и сурова. Приходится делать работу за двоих, чтобы прокормить своего малыша. Героиня этого сериала, Сэм, не унывает, ведь на её плечи легла большая ответственность, которая перерастает в смысл жизни. Девушка просто лишена минуты спокойствия на то, чтобы заниматься самотерзанием. Она способна прокормить и вырастить в одиночку трёх чудесных дочерей. Сэм не достигла успехов в карьере, но зато в личной жизни у неё все в полнейшем порядке. Она работает не самой популярной и востребованной актрисой, однако для зрителей этого сериала Сэм станет настоящей звездой, ведь девушка всегда полна оптимизма и хорошего настроения...--Перевод: Профессиональный (многоголосый, закадровый) | TVShows
Субтитры: английские-Качество: WEBRip 1080p
Формат: МКV
Видео кодек: AVC
Аудио кодек: АС3 | E-AC3
Видео: 1920x1080 (16:9), 23.976 fps, MPEG-4 AVC ~8 970 kbps avg
Аудио №1: 48.0 kHz, AC3 Dolby Digital, 3/2 (L,C,R,l,r) + LFE ch, ~384 kbps | RUS / MVO
Аудио №2: 48.0 kHz, Enhanced Audio Coding 3, 3/2 (L,C,R,l,r) + LFE ch, ~640 kbps | ENG
Формат субтитров: UTF-8 Plain Text-Дата премьеры (мир): 28 февраля 2019- -

Media Info

-General
Уникальный идентификатор : 270675535894288854700976072624122403880 (0xCBA23644449CE267CF815D04C2FC9C28)
Полное имя : Better.Things.S03E01.1080p.TVShows.mkv
Формат : Matroska
Версия формата : Version 4 / Version 2
Размер файла : 1,92 Гбайт
Продолжительность : 27 м. 28 с.
Общий поток : 9998 Кбит/сек
Дата кодирования : UTC 2019-03-07 13:08:01
Программа кодирования : mkvmerge v31.0.0 ('Dolores In A Shoestand') 64-bit
Библиотека кодирования : libebml v1.3.6 + libmatroska v1.4.9
Видео
Идентификатор : 1
Формат : AVC
Формат/Информация : Advanced Video Codec
Профиль формата : [email protected]
Параметр CABAC формата : Да
Параметр ReFrames формата : 4 кадра
Идентификатор кодека : V_MPEG4/ISO/AVC
Продолжительность : 27 м. 27 с.
Вид битрейта : Постоянный
Битрейт : 8977 Кбит/сек
Номинальный битрейт : 10000 Кбит/сек
Ширина : 1920 пикселей
Высота : 1080 пикселей
Соотношение сторон : 16:9
Режим частоты кадров : Постоянный
Частота кадров : 23,976 (24000/1001) кадра/сек
Цветовое пространство : YUV
Субдискретизация насыщенности : 4:2:0
Битовая глубина : 8 бит
Тип развёртки : Прогрессивная
Бит/(Пиксели*Кадры) : 0.181
Размер потока : 1,72 Гбайт (90%)
Язык : English
Default : Да
Forced : Нет
Цветовой диапазон : Limited
Основные цвета : BT.709
Характеристики трансфера : BT.709
Коэффициенты матрицы : BT.709
Аудио #1
Идентификатор : 2
Формат : AC-3
Формат/Информация : Audio Coding 3
Параметр Endianness формата : Big
Идентификатор кодека : A_AC3
Продолжительность : 27 м. 27 с.
Вид битрейта : Постоянный
Битрейт : 384 Кбит/сек
Каналы : 6 каналов
Расположение каналов : Front: L C R, Side: L R, LFE
Частота : 48,0 КГц
Частота кадров : 31,250 кадров/сек (1536 spf)
Битовая глубина : 16 бит
Метод сжатия : С потерями
Размер потока : 75,4 Мбайт (4%)
Заголовок : TVShows
Язык : Russian
Default : Да
Forced : Да
Аудио #2
Идентификатор : 3
Формат : E-AC-3
Формат/Информация : Enhanced Audio Coding 3
Параметр Endianness формата : Big
Идентификатор кодека : A_EAC3
Продолжительность : 27 м. 27 с.
Вид битрейта : Постоянный
Битрейт : 640 Кбит/сек
Каналы : 6 каналов
Расположение каналов : Front: L C R, Side: L R, LFE
Частота : 48,0 КГц
Частота кадров : 187,500 кадров/сек (256 spf)
Метод сжатия : С потерями
Задержка видео : 30 мс.
Размер потока : 126 Мбайт (6%)
Заголовок : Original
Язык : English
Default : Нет
Forced : Нет
Текст
Идентификатор : 4
Формат : UTF-8
Идентификатор кодека : S_TEXT/UTF8
Идентификатор кодека/Информация : UTF-8 Plain Text
Продолжительность : 27 м. 25 с.
Битрейт : 75 бит/сек
ElementCount : 566
Размер потока : 15,2 Кбайт (0%)
Заголовок : English
Язык : English
Default : Нет
Forced : Нет-
-

Скриншоты

--
-
[free-tor.com].t21348.torrent 
Торрент: Зарегистрирован [ 2019-05-15 12:25 ] · 8BD77BE567DB5AC31E0C7F681C9B50544DD58310

Скачать .torrent

Скачать .torrent

105 KB

Статус: проверено
.torrent скачан: 1 раз
Размер: 20,6 GB
Правила
Похожие темы

[Профиль] [ЛС]
Показать сообщения:    
Ответить на тему

Текущее время: 22-Май 20:57

Часовой пояс: UTC + 4



Вы не можете начинать темы
Вы не можете отвечать на сообщения
Вы не можете редактировать свои сообщения
Вы не можете удалять свои сообщения
Вы не можете голосовать в опросах
Вы не можете прикреплять файлы к сообщениям
Вы можете скачивать файлы
Анализ веб сайтов Яндекс.Метрика