СуперБобровы (Дмитрий Дьяченко) [2015, комедия, семейный, WEB-DLRip-AVC][iTunes][R.G. RustorRipper's]

Ответить на тему
 
Автор Сообщение

blacKK ®

Оффлайн

 Активный релизер 250 Активный релизер 500
 Друг трекера

Пол: Мужской

Стаж: 1 год 3 месяца

Наличие запрета:

Сообщений: 777

Откуда: Москва

Отдача: 2 Mb/s

Загрузка: 20 Mb/s

Нажми

Создавать темы 25-Апр-2016 12:11

[Цитировать]

- -Год выпуска: 2015
Страна: Россия
Жанр: комедия, семейный
Продолжительность: 01:35:12
Перевод: Не требуется
Субтитры: Нет-Режиссер: Дмитрий Дьяченко-В ролях: Павел Деревянко (Олег), Оксана Акиньшина (Светлана Боброва), Роман Мадянов (Борис Алексеевич Бобров), Ирина Пегова (Рита Боброва), Владимир Толоконников (Павел Григорьевич Бобров), Даниил Вахрушев (Толик Бобров), Софья Мицкевич (Саша Боброва), Михаил Шамигулов (ППСник), Елизавета Кононова, Виталий Кищенко (Валера), Алексей Хардиков (владелец катера), Андрей Ребенков (заведующий моргом)-Описание: Вместо десерта на ужин семейство Бобровых получило... метеорит. Настоящий, большой, из космоса. Благодаря ему Бобровы вдруг приобретают немыслимые сверхспособности. Дед становится бессмертным, а отец теперь может телепортироваться. Сын начинает понимать собачий язык, а его сёстры получают суперсилу, возможность летать и быть невидимой. Единственное ограничение - способности действуют только когда вся семейка в сборе.
Короче, у заурядной, среднестатистической ячейки общества появляется шанс превратиться в отряд настоящих супергероев. Вот только вместо того, чтобы спасать мир, они решают ограбить ближайший банк...- -Качество: WEB-DLRip-AVC
Контейнер: MKV
Видео кодек: AVC
Аудио кодек: AC3
Видео: AVC, 1040x432 (2.40:1), 1900 kbps, 24 fps, 0,176 bpp
Аудио: Русский / AC3 / 5.1 / 48 kHz / 384 kbps / 16 bit-

Скриншоты

Media Info

General
Unique ID : 249818909828192818018038221951029911480 (0xBBF15F3593061EF385CDC20CF60A9FB8)
Complete name : G:\Торрент\Super.Bobrovi.2016.WEB-DLRip-AVC.mkv
Format : Matroska
Format version : Version 4 / Version 2
File size : 1.52 GiB
Duration : 1h 35mn
Overall bit rate : 2 284 Kbps
Encoded date : UTC 2016-04-25 06:52:23
Writing application : mkvmerge v7.8.0 ('River Man') 32bit built on Mar 27 2015 16:18:02
Writing library : libebml v1.3.1 + libmatroska v1.4.2
Cover : Cover
Video
ID : 1
Format : AVC
Format/Info : Advanced Video Codec
Format profile : [email protected]
Format settings, CABAC : Yes
Format settings, ReFrames : 5 frames
Codec ID : V_MPEG4/ISO/AVC
Duration : 1h 35mn
Bit rate : 1 900 Kbps
Width : 1 040 pixels
Height : 432 pixels
Display aspect ratio : 2.40:1
Original display aspect ratio : 2.40:1
Frame rate : 24.000 fps
Color space : YUV
Chroma subsampling : 4:2:0
Bit depth : 8 bits
Scan type : Progressive
Bits/(Pixel*Frame) : 0.176
Stream size : 1.23 GiB (81%)
Writing library : x264 core 148 r2665M a01e339
Encoding settings : cabac=1 / ref=5 / deblock=1:-1:-1 / analyse=0x3:0x133 / me=umh / subme=9 / psy=1 / psy_rd=1.00:0.15 / mixed_ref=1 / me_range=16 / chroma_me=1 / trellis=1 / 8x8dct=1 / cqm=0 / deadzone=21,11 / fast_pskip=1 / chroma_qp_offset=-3 / threads=4 / lookahead_threads=1 / sliced_threads=0 / nr=0 / decimate=1 / interlaced=0 / bluray_compat=0 / constrained_intra=0 / bframes=5 / b_pyramid=2 / b_adapt=2 / b_bias=0 / direct=3 / weightb=1 / open_gop=0 / weightp=2 / keyint=240 / keyint_min=24 / scenecut=40 / intra_refresh=0 / rc_lookahead=40 / rc=2pass / mbtree=1 / bitrate=1900 / ratetol=1.0 / qcomp=0.60 / qpmin=0 / qpmax=69 / qpstep=4 / cplxblur=20.0 / qblur=0.5 / ip_ratio=1.40 / aq=1:1.00
Language : English
Default : Yes
Forced : No
DURATION : 01:35:12.000000000
NUMBER_OF_FRAMES : 137088
NUMBER_OF_BYTES : 1355284474
_STATISTICS_WRITING_APP : mkvmerge v7.8.0 ('River Man') 32bit built on Mar 27 2015 16:18:02
_STATISTICS_WRITING_DATE_UTC : 2016-04-25 06:52:23
_STATISTICS_TAGS : BPS DURATION NUMBER_OF_FRAMES NUMBER_OF_BYTES
Color primaries : BT.709-5, BT.1361, IEC 61966-2-4, SMPTE RP177
Transfer characteristics : BT.709-5, BT.1361
Matrix coefficients : BT.709-5, BT.1361, IEC 61966-2-4 709, SMPTE RP177
Audio
ID : 2
Format : AC-3
Format/Info : Audio Coding 3
Mode extension : CM (complete main)
Codec ID : A_AC3
Duration : 1h 35mn
Bit rate mode : Constant
Bit rate : 384 Kbps
Channel(s) : 6 channels
Channel positions : Front: L C R, Side: L R, LFE
Sampling rate : 48.0 KHz
Bit depth : 16 bits
Compression mode : Lossy
Stream size : 261 MiB (17%)
Language : Russian
Default : Yes
Forced : No
DURATION : 01:35:12.000000000
NUMBER_OF_FRAMES : 178500
NUMBER_OF_BYTES : 274176000
_STATISTICS_WRITING_APP : mkvmerge v7.8.0 ('River Man') 32bit built on Mar 27 2015 16:18:02
_STATISTICS_WRITING_DATE_UTC : 2016-04-25 06:52:23
_STATISTICS_TAGS : BPS DURATION NUMBER_OF_FRAMES NUMBER_OF_BYTES
Menu
00:00:00.000 : :Глава 1
00:05:48.000 : :Глава 2
00:11:31.541 : :Глава 3
00:17:33.540 : :Глава 4
00:23:10.749 : :Глава 5
00:28:51.874 : :Глава 6
00:34:25.706 : :Глава 7
00:41:08.665 : :Глава 8
00:47:43.540 : :Глава 9
00:53:00.456 : :Глава 10
00:58:34.622 : :Глава 11
01:03:53.705 : :Глава 12
01:09:34.580 : :Глава 13
01:16:31.871 : :Глава 14
01:22:49.287 : :Глава 15
01:29:28.162 : :Глава 16
[Профиль] [ЛС]
Показать сообщения:    
Ответить на тему

Текущее время: 10-Дек 06:57

Часовой пояс: UTC + 4



Вы не можете начинать темы
Вы не можете отвечать на сообщения
Вы не можете редактировать свои сообщения
Вы не можете удалять свои сообщения
Вы не можете голосовать в опросах
Вы не можете прикреплять файлы к сообщениям
Вы не можете скачивать файлы
Анализ веб сайтов Яндекс.Метрика Рейтинг@Mail.ru