Страшные сказки / Il racconto dei racconti (Маттео Гарроне / Matteo Garrone) [2015, Италия, Франция, Великобритания, ужасы, фэнтези, мелодрама, BDRip] AVO (Сербин)

Ответить на тему
 
Автор Сообщение

4udaki ®

Оффлайн



Пол: Мужской

Стаж: 2 года 1 месяц

Наличие запрета:

Сообщений: 2533

Откуда: free-tor.com

Отдача: 2 Mb/s

Загрузка: 20 Mb/s

Нажми

Создавать темы 27-Апр-2016 15:59

[Цитировать]

Страшные сказки / Il racconto dei racconti Страна: Италия, Франция, Великобритания
Жанр: ужасы, фэнтези, мелодрама
Год выпуска: 2015
Продолжительность: 02:13:21
Перевод: Авторский (одноголосый закадровый) Юрий Сербин
Cубтитры: нет
Режиссер: Маттео Гарроне / Matteo Garrone
В ролях: Сальма Хайек, Венсан Кассель, Тоби Джонс, Джон С. Райлли, Ширли Хендерсон, Стэйси Мартин, Джесси Кейв, Альба Рорвахер
Описание: Маги и волшебники, короли и королевы, красавицы-принцессы и страшилы-великаны населяют эту потрясающую готическую фантазию. Сластолюбивый Король Одинокого Утеса берет в жены прелестную деву, а она превращается в уродливую старуху. Отважный Король Долины Туманов отправляется на бой с драконом, поскольку волшебник предсказал, что королева понесет ребенка, если съест сердце дракона. Ну, а Король Диких Гор с любовью выращивает гигантскую блоху, а родную дочь без тени сожаления отдает в жены горному огру. За стенами величественных замков строятся коварные козни, даются безрассудные обеты, там страстно любят и жестоко убивают…

Качество видео: BDRip | Tale.of.Tales.2015.1080p.BluRay.AVC.DTS-HD.MA.5.1
Формат видео: AVI
Видео кодек: XviD
Аудио кодек: AC3
Видео: 720x304 (2.37:1), 24 fps, XviD build 73 ~1885 kbps avg, 0.36 bit/pixel
Аудио: 48 kHz, AC3 Dolby Digital, 3/2 (L,C,R,l,r) + LFE ch, ~448 kbps

Доп.инфо

за видеоряд спасибо Twi7ter
за Сербина спасибо HDTracker

MediaInfo

Complete name : Страшные сказки 2015.avi
Format : AVI
Format/Info : Audio Video Interleave
Format profile : OpenDML
File size : 2.18 GiB
Duration : 2h 13mn
Overall bit rate : 2 340 Kbps
Writing application : VirtualDubMod 1.5.10.3 | www.virtualdub-fr.org || (build 2550/release)
Video
ID : 0
Format : MPEG-4 Visual
Format profile : Advanced Simple@L5
Format settings, BVOP : 2
Format settings, QPel : No
Format settings, GMC : No warppoints
Format settings, Matrix : Custom
Codec ID : XVID
Codec ID/Hint : XviD
Duration : 2h 13mn
Bit rate : 1 880 Kbps
Width : 720 pixels
Height : 304 pixels
Display aspect ratio : 2.35:1
Frame rate : 24.000 fps
Color space : YUV
Chroma subsampling : 4:2:0
Bit depth : 8 bits
Scan type : Progressive
Compression mode : Lossy
Bits/(Pixel*Frame) : 0.358
Stream size : 1.75 GiB (80%)
Writing library : XviD 73
Audio
ID : 1
Format : AC-3
Format/Info : Audio Coding 3
Mode extension : CM (complete main)
Format settings, Endianness : Big
Codec ID : 2000
Duration : 2h 13mn
Bit rate mode : Constant
Bit rate : 448 Kbps
Channel(s) : 6 channels
Channel positions : Front: L C R, Side: L R, LFE
Sampling rate : 48.0 KHz
Frame rate : 31.250 fps (1536 spf)
Compression mode : Lossy
Stream size : 427 MiB (19%)
Alignment : Split accross interleaves
Interleave, duration : 42 ms (1.00 video frame)
Interleave, preload duratio : 500 ms

Скриншоты

[Профиль] [ЛС]
Показать сообщения:    
Ответить на тему

Текущее время: 04-Дек 07:57

Часовой пояс: UTC + 4



Вы не можете начинать темы
Вы не можете отвечать на сообщения
Вы не можете редактировать свои сообщения
Вы не можете удалять свои сообщения
Вы не можете голосовать в опросах
Вы не можете прикреплять файлы к сообщениям
Вы не можете скачивать файлы
Анализ веб сайтов Яндекс.Метрика Рейтинг@Mail.ru