Древние / Первородные / The Originals / Сезон: 3 / Серии: 1-18 из 22 (Крис Грисмер, Джесси Уарн, Майкл А. Алловиц) [2015 г., Ужасы, фантастика, боевик, драма, приключения, HDTVRip 720p] MVO (Jaskier) + Original

Ответить на тему
 
Автор Сообщение

4udaki ®

Онлайн



Пол: Мужской

Стаж: 2 года 1 месяц

Наличие запрета:

Сообщений: 2533

Откуда: free-tor.com

Отдача: 2 Mb/s

Загрузка: 20 Mb/s

Нажми

Создавать темы 27-Апр-2016 17:59

[Цитировать]

Первородные | The Originals -Оригинальное название: The Originals
Русское название: Первородные
Год выпуска: 2015
Страна: США
Жанр: ужасы, фэнтези, драма, мелодрама
Продолжительность: ~40 минут-Перевод: Профессиональный (многоголосый закадровый) Студия Jaskier
Субтитры: Нет-Режиссёр: Крис Грисмер, Джесси Уарн, Майкл А. Алловиц-В ролях: Джозеф Морган, Дэниэл Гиллис, Чарльз Майкл Дэвис, Каллард Харрис, Александра Фикен, Даниэль Кэмпбелл, Эка Дарвилл, Клер Холт, Даниэлла Пинеда, Леа Пайпс и др.-Описание: До того, как появились вампиры, миром правили Первородные. Спустя долгие годы Клаус Майклсон возвращается в родной Новый Орлеан, который он когда-то помог построить. Там он встречает своего старого друга и ученика Марселя. Последний навел в городе свои порядки и установил строгие правила на колдовство ведьм. Все это не касалось Клауса (который особо и не интересовался), пока однажды он не услышал, как бьется сердце его еще не рожденного ребенка. Появление наследника Первородного никак не укладывалось в новые порядки Марселя, поэтому теперь Клаусу предстоит сделать важнейший выбор в своей жизни.- -Сэмпл-Качество: HDTVRip 720p
Формат: MKV
Видео кодек: AVC
Аудио кодек: AC3
Видео: AVC, 1280x720 (16:9), 23.976 fps, ~2296 kbps, ~0.104 bit/pixel-Аудио 1: Dolby AC3, 48 kHz, stereo, 192 kbps Русский
Аудио 2: Dolby AC3, 48 kHz, 6 ch, 384 kbps Оригинал (Английский)-

MediaInfo

General
Unique ID                   : 231611015018732910541419722116645749469 (0xAE3EA8AF7827FB44AC2AB2D91A1F82DD)
Complete name               : Z:\HD\The Originals. 3 season (HDTVRip l 720p l Jaskier)\The.Originals.S03E01.720p.HDTV.X264-JASKIER.mkv
Format                      : Matroska
Format version              : Version 1
File size                   : 892 MiB
Duration                    : 42mn 33s
Overall bit rate            : 2 930 Kbps
Encoded date                : UTC 2015-11-06 10:39:19
Writing application         : mkvmerge v2.3.0 ('Freak U') built on Sep  8 2008 18:32:16
Writing library             : libebml v0.7.7 + libmatroska v0.8.1
Video
ID                          : 1
Format                      : AVC
Format/Info                 : Advanced Video Codec
Format profile              : High@L4.1
Format settings, CABAC      : Yes
Format settings, ReFrames   : 8 frames
Codec ID                    : V_MPEG4/ISO/AVC
Duration                    : 42mn 33s
Bit rate                    : 2 296 Kbps
Width                       : 1 280 pixels
Height                      : 720 pixels
Display aspect ratio        : 16:9
Frame rate mode             : Constant
Frame rate                  : 23.976 fps
Color space                 : YUV
Chroma subsampling          : 4:2:0
Bit depth                   : 8 bits
Scan type                   : Progressive
Bits/(Pixel*Frame)          : 0.104
Stream size                 : 699 MiB (78%)
Writing library             : x264 core 148 r2597 e86f3a1
Encoding settings           : cabac=1 / ref=8 / deblock=1:-2:-2 / analyse=0x3:0x113 / me=umh / subme=9 / psy=1 / psy_rd=1.00:0.00 / mixed_ref=1 / me_range=24 / chroma_me=1 / trellis=1 / 8x8dct=1 / cqm=0 / deadzone=21,11 / fast_pskip=0 / chroma_qp_offset=-2 / threads=18 / lookahead_threads=2 / sliced_threads=0 / nr=0 / decimate=1 / interlaced=0 / bluray_compat=0 / constrained_intra=0 / bframes=5 / b_pyramid=2 / b_adapt=2 / b_bias=0 / direct=3 / weightb=1 / open_gop=0 / weightp=2 / keyint=250 / keyint_min=23 / scenecut=40 / intra_refresh=0 / rc_lookahead=50 / rc=crf / mbtree=1 / crf=18.0 / qcomp=0.60 / qpmin=0 / qpmax=69 / qpstep=4 / ip_ratio=1.40 / aq=1:1.00
Language                    : English
Default                     : Yes
Forced                      : No
Audio #1
ID                          : 2
Format                      : AC-3
Format/Info                 : Audio Coding 3
Mode extension              : CM (complete main)
Format settings, Endianness : Big
Codec ID                    : A_AC3
Duration                    : 42mn 33s
Bit rate mode               : Constant
Bit rate                    : 192 Kbps
Channel(s)                  : 2 channels
Channel positions           : Front: L R
Sampling rate               : 48.0 KHz
Compression mode            : Lossy
Stream size                 : 58.4 MiB (7%)
Language                    : Russian
Default                     : Yes
Forced                      : No
Audio #2
ID                          : 3
Format                      : AC-3
Format/Info                 : Audio Coding 3
Mode extension              : CM (complete main)
Format settings, Endianness : Big
Codec ID                    : A_AC3
Duration                    : 42mn 33s
Bit rate mode               : Constant
Bit rate                    : 384 Kbps
Channel(s)                  : 6 channels
Channel positions           : Front: L C R, Side: L R, LFE
Sampling rate               : 48.0 KHz
Compression mode            : Lossy
Delay relative to video     : 100ms
Stream size                 : 117 MiB (13%)
Language                    : English
Default                     : No
Forced                      : No

Скриншоты

[thumb]http://s016.[radikal временно запрещен]/i334/1511/08/d15fbc20d20d.png[/thumb][thumb]http://s019.[radikal временно запрещен]/i622/1511/4a/5743439ca47a.png[/thumb][thumb]http://s020.[radikal временно запрещен]/i704/1511/82/f9b5a0f073a8.png[/thumb]
[Профиль] [ЛС]
Показать сообщения:    
Ответить на тему

Текущее время: 03-Дек 15:32

Часовой пояс: UTC + 4



Вы не можете начинать темы
Вы не можете отвечать на сообщения
Вы не можете редактировать свои сообщения
Вы не можете удалять свои сообщения
Вы не можете голосовать в опросах
Вы не можете прикреплять файлы к сообщениям
Вы не можете скачивать файлы
Анализ веб сайтов Яндекс.Метрика Рейтинг@Mail.ru