Дневники принцессы 2: Как стать королевой / The Princess Diaries 2: Royal Engagement (Гэрри Маршалл / Garry Marshall) [2004, США, мелодрама, комедия, семейный, VHSRip] [Fullscreen] Dub (Видеосервис)

Ответить на тему
 
Автор Сообщение

blacKK ®

Оффлайн

 Активный релизер 250 Активный релизер 500
 Друг трекера

Пол: Мужской

Стаж: 1 год 3 месяца

Наличие запрета:

Сообщений: 776

Откуда: Москва

Отдача: 2 Mb/s

Загрузка: 20 Mb/s

Нажми

Создавать темы 28-Апр-2016 12:42

[Цитировать]

Дневники принцессы 2: Как стать королевой / The Princess Diaries 2: Royal Engagement
«The throne is all hers...but there's a little hitch»
- -Страна: США
Жанр: мелодрама, комедия, семейный
Год выпуска: 2004
Продолжительность: 01:48:31
Перевод: Профессиональный (дублированный) Видеосервис
Cубтитры: нет-Режиссер: Гэрри Маршалл / Garry Marshall
В ролях: Энн Хэтэуэй, Джули Эндрюс, Гектор Элизондо, Хизер Матараццо, Джон Рис-Дэвис, Крис Пайн, Каллум Блу, Кэтлин Маршалл, Том Постон, Джоэль МакКрэри-Описание: Eще недавно Мия Термополис была простой американской школьницей, которую однокашники считали "серой мышкой". Но раскрывается маленький семейный секрет, и она узнает, что является дочерью... короля европейской страны Женовии! А следовательно, самой настоящей принцессой! И вот уже Мия под чутким руководством царственной бабушки Клариссы постигает науку быть королевой. Процесс идет туго: легендарная неуклюжесть принцессы превращает ее выходы в свет в цирк, а ее непосредственность трагически несовместима с правилами этикета. Но самое интересное начинается тогда, когда героиня с ужасом узнает: чтобы взойти на трон, ей придется срочно выйти замуж за какого-нибудь надутого принца!..
Из легкомысленных принцесс порой вырастают прекрасные королевы. Об этом и расскажет вам долгожданное продолжение хита "Как стать принцессой" от автора "Красотки" и "Сбежавшей невесты", обаятельная Энн Хэтэуэй ("Зачарованная Элла"), обладательница премии "Оскар" Джули Эндрюс (лучшая актриса, "Мэри Поппинс", 1964г.) и эффектный Гектор Элизондо - в восхитительной диснеевской комедии Гэрри Маршалла "Дневники принцессы 2: Как стать королевой".- СЭМПЛ-Качество видео: VHSRip
Формат видео: AVI
Видео: 704x528 (1.33:1), 25 fps, XviD build 73 ~1728 kbps avg, 0.19 bit/pixel
Аудио: 48 kHz, AC3 Dolby Digital, 2/0 (L,R) ch, ~192 kbps-

MediaInfo

Дневники принцессы-2 - The Princess Diaries 2 (by alenavova).avi
Format : AVI
Format/Info : Audio Video Interleave
File size : 1.46 GiB
Duration : 1h 48mn
Overall bit rate : 1 930 Kbps
Movie name : Дневники принцессы-2 - The Princess Diaries 2 (by alenavova)
Director : by alenavova
Writing application : VirtualDubMod 1.5.10.3 | www.virtualdub-fr.org || (build 2550/release)
Copyright : Edich2
Comment : [запрещенный сайт]
Video
ID : 0
Format : MPEG-4 Visual
Format profile : Advanced Simple@L5
Format settings, BVOP : 2
Format settings, QPel : No
Format settings, GMC : No warppoints
Format settings, Matrix : Custom
Codec ID : XVID
Codec ID/Hint : XviD
Duration : 1h 48mn
Bit rate : 1 729 Kbps
Width : 704 pixels
Height : 528 pixels
Display aspect ratio : 4:3
Frame rate : 25.000 fps
Color space : YUV
Chroma subsampling : 4:2:0
Bit depth : 8 bits
Scan type : Progressive
Compression mode : Lossy
Bits/(Pixel*Frame) : 0.186
Stream size : 1.31 GiB (90%)
Writing library : XviD 73
Audio
ID : 1
Format : AC-3
Format/Info : Audio Coding 3
Mode extension : CM (complete main)
Format settings, Endianness : Big
Codec ID : 2000
Duration : 1h 48mn
Bit rate mode : Constant
Bit rate : 192 Kbps
Channel(s) : 2 channels
Channel positions : Front: L R
Sampling rate : 48.0 KHz
Frame rate : 31.250 fps (1536 spf)
Compression mode : Lossy
Stream size : 149 MiB (10%)
Alignment : Split accross interleaves
Interleave, duration : 40 ms (1.00 video frame)
Interleave, preload duratio : 500 ms

Скриншоты

[Профиль] [ЛС]
Показать сообщения:    
Ответить на тему

Текущее время: 09-Дек 05:51

Часовой пояс: UTC + 4



Вы не можете начинать темы
Вы не можете отвечать на сообщения
Вы не можете редактировать свои сообщения
Вы не можете удалять свои сообщения
Вы не можете голосовать в опросах
Вы не можете прикреплять файлы к сообщениям
Вы не можете скачивать файлы
Анализ веб сайтов Яндекс.Метрика Рейтинг@Mail.ru