Карантин / Containment [1x1-9 из 13] (Чарльз Бисон, Дэвид Наттер, Лэнс Андерсон, Дэвид Бойд) [2016 г., фантастика, драма, HDTV 720p] MVO (Jaskier) + Original

Ответить на тему
 
Автор Сообщение

4udaki ®

Оффлайн



Пол: Мужской

Стаж: 2 года 1 месяц

Наличие запрета:

Сообщений: 2551

Откуда: free-tor.com

Отдача: 2 Mb/s

Загрузка: 20 Mb/s

Нажми

Создавать темы 28-Апр-2016 17:24

[Цитировать]

Карантин / Containment- Оригинальное название: Containment
Русское название: Карантин
Год выпуска: 2016
Страна: США
Жанр: фантастика, драма
Продолжительность: ~00:45:00-Перевод: Профессиональный (многоголосый закадровый) Студия Jaskier
Субтитры: Нет-Режиссёр: Чарльз Бисон, Дэвид Наттер, Лэнс Андерсон, Дэвид Бойд-В ролях: Дэвид Гяси, Кристен Гутоски, Клаудия Блэк, Джордж Янг, Майлз Долеак, Надин Левингтон, Йоханс Майлс и др.- -Описание: Американский город Атланта, штат Джорджия, внезапно оказывается под властью загадочного вируса. С целью сдержать распространение опасной эпидемии правительство страны объявляет центр города карантинной зоной. Несколько героев оказываются в заточении на небольшой территории. Вскоре не только вирус, но и чудовищная паника ставит под угрозу жизнь и безопасность людей. Ученым необходимо как можно скорее найти лекарство, иначе город поглотит хаос.-Сэмпл-Качество: HDTVRip 720p
Формат: MKV
Видео кодек: h.264
Аудио кодек: AC3
Видео: AVC, 1280x720 (16:9), 23.976 fps, ~2600 kbps, 0.118 bit/pixel-Аудио 1: Dolby AC3, 48 kHz, stereo, 192 kbps Русский
Аудио 2: Dolby AC3, 48 kHz, 6 ch, 384 kbps Оригинал (Английский)
Субтитры: Нет-

MediaInfo

General
Unique ID                      : 185246943452101678708938992530276503125 (0x8B5D4378044D8BB2AB8890F9A7304E55)
Complete name                  : Z:\HD\Containment. Season 1 (HDTVRip l 720p l Jaskier)\Containment.S01E01.720p.HDTV.X264-JASKIER.mkv
Format                         : Matroska
Format version                 : Version 1
File size                      : 982 MiB
Duration                       : 42mn 16s
Overall bit rate               : 3 249 Kbps
Encoded date                   : UTC 2016-04-23 00:18:16
Writing application            : mkvmerge v2.3.0 ('Freak U') built on Sep  8 2008 18:32:16
Writing library                : libebml v0.7.7 + libmatroska v0.8.1
DURATION                       : 00:42:16.832000000
NUMBER_OF_FRAMES               : 79276
NUMBER_OF_BYTES                : 121767936
_STATISTICS_WRITING_APP        : mkvmerge v8.4.0 ('A better way to fly') 64bit
_STATISTICS_WRITING_DATE_UTC   : 2016-04-19 11:53:59
_STATISTICS_TAGS               : BPS DURATION NUMBER_OF_FRAMES NUMBER_OF_BYTES
Video
ID                             : 1
Format                         : AVC
Format/Info                    : Advanced Video Codec
Format profile                 : High@L4.1
Format settings, CABAC         : Yes
Format settings, ReFrames      : 9 frames
Codec ID                       : V_MPEG4/ISO/AVC
Duration                       : 42mn 16s
Bit rate                       : 2 608 Kbps
Width                          : 1 280 pixels
Height                         : 720 pixels
Display aspect ratio           : 16:9
Frame rate                     : 23.976 fps
Color space                    : YUV
Chroma subsampling             : 4:2:0
Bit depth                      : 8 bits
Scan type                      : Progressive
Bits/(Pixel*Frame)             : 0.118
Stream size                    : 789 MiB (80%)
Writing library                : x264 core 148 r2665 a01e339
Encoding settings              : cabac=1 / ref=9 / deblock=1:-2:-2 / analyse=0x3:0x133 / me=umh / subme=10 / psy=1 / psy_rd=1.00:0.00 / mixed_ref=1 / me_range=32 / chroma_me=1 / trellis=2 / 8x8dct=1 / cqm=0 / deadzone=21,11 / fast_pskip=0 / chroma_qp_offset=-2 / threads=20 / lookahead_threads=2 / sliced_threads=0 / nr=0 / decimate=1 / interlaced=0 / bluray_compat=0 / constrained_intra=0 / bframes=5 / b_pyramid=2 / b_adapt=2 / b_bias=0 / direct=3 / weightb=1 / open_gop=0 / weightp=2 / keyint=250 / keyint_min=23 / scenecut=40 / intra_refresh=0 / rc_lookahead=60 / rc=crf / mbtree=1 / crf=18.0 / qcomp=0.60 / qpmin=0 / qpmax=69 / qpstep=4 / ip_ratio=1.40 / aq=1:1.00
Language                       : English
Default                        : Yes
Forced                         : No
DURATION                       : 00:42:16.868000000
NUMBER_OF_FRAMES               : 60824
NUMBER_OF_BYTES                : 846393342
_STATISTICS_WRITING_APP        : mkvmerge v8.4.0 ('A better way to fly') 64bit
_STATISTICS_WRITING_DATE_UTC   : 2016-04-19 11:53:59
_STATISTICS_TAGS               : BPS DURATION NUMBER_OF_FRAMES NUMBER_OF_BYTES
Matrix coefficients            : BT.709-5, BT.1361, IEC 61966-2-4 709, SMPTE RP177
Audio #1
ID                             : 2
Format                         : AC-3
Format/Info                    : Audio Coding 3
Mode extension                 : CM (complete main)
Format settings, Endianness    : Big
Codec ID                       : A_AC3
Duration                       : 42mn 16s
Bit rate mode                  : Constant
Bit rate                       : 192 Kbps
Channel(s)                     : 2 channels
Channel positions              : Front: L R
Sampling rate                  : 48.0 KHz
Bit depth                      : 16 bits
Compression mode               : Lossy
Stream size                    : 58.1 MiB (6%)
Language                       : Russian
Default                        : Yes
Forced                         : No
Audio #2
ID                             : 3
Format                         : AC-3
Format/Info                    : Audio Coding 3
Mode extension                 : CM (complete main)
Format settings, Endianness    : Big
Codec ID                       : A_AC3
Duration                       : 42mn 16s
Bit rate mode                  : Constant
Bit rate                       : 384 Kbps
Channel(s)                     : 6 channels
Channel positions              : Front: L C R, Side: L R, LFE
Sampling rate                  : 48.0 KHz
Bit depth                      : 16 bits
Compression mode               : Lossy
Stream size                    : 116 MiB (12%)
Default                        : No
Forced                         : No

Скриншоты

[thumb]http://s018.[radikal временно запрещен]/i520/1604/c9/b54342e48f2c.png[/thumb][thumb]http://s019.[radikal временно запрещен]/i638/1604/1e/5cb8e9e49497.png[/thumb][thumb]http://s014.[radikal временно запрещен]/i327/1604/d1/1847df6a7698.png[/thumb]
-23.06.2016 обновлено. Добавлена 9-я серия.
[Профиль] [ЛС]
Показать сообщения:    
Ответить на тему

Текущее время: 09-Дек 01:57

Часовой пояс: UTC + 4



Вы не можете начинать темы
Вы не можете отвечать на сообщения
Вы не можете редактировать свои сообщения
Вы не можете удалять свои сообщения
Вы не можете голосовать в опросах
Вы не можете прикреплять файлы к сообщениям
Вы не можете скачивать файлы
Анализ веб сайтов Яндекс.Метрика Рейтинг@Mail.ru