Настоящее преступление / True Crime (Клинт Иствуд) [1999, триллер, драма, криминал, детектив, BDRip-AVC]

Ответить на тему
 
Автор Сообщение

blacKK ®

Оффлайн

 Активный релизер 250 Активный релизер 500
 Друг трекера

Пол: Мужской

Стаж: 1 год 3 месяца

Наличие запрета:

Сообщений: 769

Откуда: Москва

Отдача: 2 Mb/s

Загрузка: 20 Mb/s

Нажми

Создавать темы 18-Май-2016 12:20

[Цитировать]

Настоящее преступление / True Crime
-

Год выпуска: 1999
Страна: США
Жанр: триллер, драма, криминал, детектив
Продолжительность: 02:07:26
Cубтитры: русские, английские (full + SDH)
Перевод: Профессиональный (многоголосый) | Варус Видео + Авторский (одноголосый) | Юрий Живов
Режиссер: Клинт Иствуд
Сценарий: Ларри Гросс, Пол Брикман, Стивен Шифф
Продюсер: Клинт Иствуд, Лили Фини Занук, Ричард Д. Занук
Оператор: Джек Н. Грин
Композитор : Ленни Нихаус
Художник: Генри Бамстед, Джек Дж. Тейлор мл., Ричард С. Годдар
Монтаж: Джоэль Кокс
В ролях: Клинт Иствуд / Clint Eastwood (Steve Everett), Исайя Вашингтон / Isaiah Washington (Frank Louis Beechum), Лиза Гэй Хэмилтон / Lisa Gay Hamilton (Bonnie Beechum), Джеймс Вудс / James Woods (Alan Mann), Дэнис Лири / Denis Leary (Bob Findley), Бернард Хилл / Bernard Hill (Warden Luther Plunkitt), Дайан Венора / Diane Venora (Barbara Everett), Майкл МакКин / Michael McKean (Reverend Shillerman)

Описание: Тертый жизнью репортер Стив Эверетт на первый взгляд не вызывает симпатий. Он — пьяница, бабник, сквернословит, не слишком заботливый отец. Однако, когда Стив понимает, что молодой парень, которого должны казнить через 12 часов, не виноват, он не раздумывая идет на риск, чтобы предотвратить настоящее преступление.
СЭМПЛ
Бюджет: $55 000 000
Сборы в США: $16 649 768
Зрители: США 3.28 млн , Франция 890.3 тыс. , Испания 633.3 тыс.
Премьера (мир): 19 марта 1999
Рейтинг MPAA: Лицам до 17 лет обязательно присутствие взрослого

Качество: BDRip-AVC
Формат: MKV
Видео кодек: H.264 (AVC)
Аудио кодек: AC3
Видео: 1024x576 (16:9), 23.976 fps, MPEG-4 AVC ~2 305 kbps avg, 0.163 bit/pixel
Аудио:
Аудио #1: 48.0 kHz, AC3 Dolby Digital, 2/0 (L,R) ch, ~192.00 kbps | Варус Видео
Аудио #2: 48.0 kHz, AC3 Dolby Digital, 3/2 (L,C,R,l,r) + LFE ch, ~384 kbps | АVO
Аудио #3: 48.0 kHz, AC3 Dolby Digital, 3/2 (L,C,R,l,r) + LFE ch, ~384 kbps | ENG

Скриншоты

[thumb]http://s13.[radikal временно запрещен]/i186/1605/f3/c8cc4f1ebbfb.png[/thumb] [thumb]http://s017.[radikal временно запрещен]/i414/1605/e2/6558796ac215.png[/thumb] [thumb]http://s018.[radikal временно запрещен]/i510/1605/73/97502801a4dc.png[/thumb]

МедиаИнфо

General
Уникальный идентификатор : 171951854226697599521615355935818148772 (0x815CB8F61344A42891BEE299D8C26BA4)
Формат : Matroska
Версия формата : Version 4 / Version 2
Размер файла : 2,91 Гбайт
Продолжительность : 2 ч. 7 м.
Общий поток : 3266 Кбит/сек
Дата кодирования : UTC 2016-05-18 05:55:27
Программа кодирования : mkvmerge v7.0.0 ('Where We Going') 64bit built on Jun 9 2014 15:16:27
Библиотека кодирования : libebml v1.3.0 + libmatroska v1.4.1
Видео
Идентификатор : 1
Формат : AVC
Формат/Информация : Advanced Video Codec
Профиль формата : High@L4.1
Параметр CABAC формата : Да
Параметр ReFrames формата : 14 кадров
Идентификатор кодека : V_MPEG4/ISO/AVC
Продолжительность : 2 ч. 7 м.
Битрейт : 2305 Кбит/сек
Ширина : 1024 пикселя
Высота : 576 пикселей
Соотношение сторон : 16:9
Режим частоты кадров : Постоянный
Частота кадров : 23,976 (24000/1001) кадра/сек
Цветовое пространство : YUV
Субдискретизация насыщенности : 4:2:0
Битовая глубина : 8 бит
Тип развёртки : Прогрессивная
Бит/(Пиксели*Кадры) : 0.163
Размер потока : 2,05 Гбайт (71%)
Библиотека кодирования : x264 core 148 r2638 7599210
Настройки программы : cabac=1 / ref=14 / deblock=1:0:0 / analyse=0x3:0x133 / me=umh / subme=10 / psy=1 / psy_rd=1.00:0.00 / mixed_ref=1 / me_range=24 / chroma_me=1 / trellis=2 / 8x8dct=1 / cqm=0 / deadzone=21,11 / fast_pskip=1 / chroma_qp_offset=-2 / threads=6 / lookahead_threads=1 / sliced_threads=0 / nr=0 / decimate=1 / interlaced=0 / bluray_compat=0 / constrained_intra=0 / bframes=10 / b_pyramid=2 / b_adapt=2 / b_bias=0 / direct=3 / weightb=1 / open_gop=0 / weightp=2 / keyint=240 / keyint_min=23 / scenecut=40 / intra_refresh=0 / rc_lookahead=60 / rc=2pass / mbtree=0 / bitrate=2305 / ratetol=1.0 / qcomp=0.60 / qpmin=0 / qpmax=69 / qpstep=4 / cplxblur=20.0 / qblur=0.5 / vbv_maxrate=62500 / vbv_bufsize=78125 / nal_hrd=none / filler=0 / ip_ratio=1.40 / pb_ratio=1.30 / aq=1:1.00
Default : Да
Forced : Нет
Аудио #1
Идентификатор : 2
Формат : AC-3
Формат/Информация : Audio Coding 3
Расширение режима : CM (complete main)
Параметр Endianness формата : Big
Идентификатор кодека : A_AC3
Продолжительность : 2 ч. 7 м.
Вид битрейта : Постоянный
Битрейт : 192 Кбит/сек
Каналы : 2 канала
Расположение каналов : Front: L R
Частота : 48,0 КГц
Частота кадров : 31,250 кадров/сек (1536 spf)
Метод сжатия : С потерями
Размер потока : 175 Мбайт (6%)
Заголовок : Russian_MVO
Язык : Russian
Default : Да
Forced : Нет
Аудио #2
Идентификатор : 3
Формат : AC-3
Формат/Информация : Audio Coding 3
Расширение режима : CM (complete main)
Параметр Endianness формата : Big
Идентификатор кодека : A_AC3
Продолжительность : 2 ч. 7 м.
Вид битрейта : Постоянный
Битрейт : 384 Кбит/сек
Каналы : 6 каналов
Расположение каналов : Front: L C R, Side: L R, LFE
Частота : 48,0 КГц
Частота кадров : 31,250 кадров/сек (1536 spf)
Метод сжатия : С потерями
Размер потока : 350 Мбайт (12%)
Заголовок : Russian_AVO
Язык : Russian
Default : Нет
Forced : Нет
Аудио #3
Идентификатор : 4
Формат : AC-3
Формат/Информация : Audio Coding 3
Расширение режима : CM (complete main)
Параметр Endianness формата : Big
Идентификатор кодека : A_AC3
Продолжительность : 2 ч. 7 м.
Вид битрейта : Постоянный
Битрейт : 384 Кбит/сек
Каналы : 6 каналов
Расположение каналов : Front: L C R, Side: L R, LFE
Частота : 48,0 КГц
Частота кадров : 31,250 кадров/сек (1536 spf)
Метод сжатия : С потерями
Размер потока : 350 Мбайт (12%)
Заголовок : English
Язык : English
Default : Нет
Forced : Нет
Текст #1
Идентификатор : 5
Формат : UTF-8
Идентификатор кодека : S_TEXT/UTF8
Идентификатор кодека/Информация : UTF-8 Plain Text
Продолжительность : 2 ч. 0 м.
Битрейт : 110 бит/сек
Count of elements : 1661
Размер потока : 97,5 Кбайт (0%)
Заголовок : Russian
Язык : Russian
Default : Да
Forced : Нет
Текст #2
Идентификатор : 6
Формат : UTF-8
Идентификатор кодека : S_TEXT/UTF8
Идентификатор кодека/Информация : UTF-8 Plain Text
Продолжительность : 2 ч. 6 м.
Битрейт : 74 бит/сек
Count of elements : 1817
Размер потока : 69,0 Кбайт (0%)
Заголовок : English_Full
Язык : English
Default : Нет
Forced : Нет
Текст #3
Идентификатор : 7
Формат : UTF-8
Идентификатор кодека : S_TEXT/UTF8
Идентификатор кодека/Информация : UTF-8 Plain Text
Продолжительность : 2 ч. 6 м.
Битрейт : 77 бит/сек
Count of elements : 1913
Размер потока : 71,8 Кбайт (0%)
Заголовок : English_SDH
Язык : English
Default : Нет
Forced : Нет
Меню
00:00:00.000 : en:00:00:00.000
00:01:28.255 : en:00:01:28.255
00:04:08.457 : en:00:04:08.457
00:05:31.873 : en:00:05:31.873
00:09:59.140 : en:00:09:59.140
00:13:11.165 : en:00:13:11.165
00:17:02.730 : en:00:17:02.730
00:18:19.807 : en:00:18:19.807
00:23:57.811 : en:00:23:57.811
00:29:23.637 : en:00:29:23.637
00:32:47.048 : en:00:32:47.048
00:35:07.314 : en:00:35:07.314
00:38:54.874 : en:00:38:54.874
00:41:43.710 : en:00:41:43.710
00:48:16.102 : en:00:48:16.102
00:52:35.027 : en:00:52:35.027
00:53:58.277 : en:00:53:58.277
00:57:04.171 : en:00:57:04.171
01:00:12.818 : en:01:00:12.818
01:02:20.946 : en:01:02:20.946
01:05:26.798 : en:01:05:26.798
01:10:33.604 : en:01:10:33.604
01:15:29.608 : en:01:15:29.608
01:17:08.374 : en:01:17:08.374
01:19:51.996 : en:01:19:51.996
01:22:23.313 : en:01:22:23.313
01:25:53.899 : en:01:25:53.899
01:29:47.424 : en:01:29:47.424
01:32:08.898 : en:01:32:08.898
01:36:17.647 : en:01:36:17.647
01:43:28.911 : en:01:43:28.911
01:44:39.982 : en:01:44:39.982
01:47:56.345 : en:01:47:56.345
01:50:07.643 : en:01:50:07.643
01:52:47.678 : en:01:52:47.678
01:54:57.599 : en:01:54:57.599
01:58:40.989 : en:01:58:40.989
02:00:16.960 : en:02:00:16.960
02:02:05.401 : en:02:02:05.401
[Профиль] [ЛС]
Показать сообщения:    
Ответить на тему

Текущее время: 04-Дек 07:56

Часовой пояс: UTC + 4



Вы не можете начинать темы
Вы не можете отвечать на сообщения
Вы не можете редактировать свои сообщения
Вы не можете удалять свои сообщения
Вы не можете голосовать в опросах
Вы не можете прикреплять файлы к сообщениям
Вы не можете скачивать файлы
Анализ веб сайтов Яндекс.Метрика Рейтинг@Mail.ru