Остров проклятых / Shutter Island (Мартин Скорсезе / Martin Scorsese) [2010 г., США, триллер, драма, детектив, BDRip] Dub

Ответить на тему
 
Автор Сообщение

blacKK ®

Оффлайн

 Активный релизер 250 Активный релизер 500
 Друг трекера

Пол: Мужской

Стаж: 1 год 3 месяца

Наличие запрета:

Сообщений: 777

Откуда: Москва

Отдача: 2 Mb/s

Загрузка: 20 Mb/s

Нажми

Создавать темы 23-Май-2016 10:49

[Цитировать]

Остров проклятыхShutter Island Год выпуска: 2010
Страна: США
Жанр: триллер, драма, детектив
Продолжительность: 02:18:04
Перевод: Профессиональный полное дублирование
Cубтитры: нет-Режиссёр: Мартин Скорсезе / Martin Scorsese-В ролях:
Леонардо ДиКаприо, Марк Руффало, Макс фон Сюдов, Бен Кингсли, Мишель Уильямс, Эмили Мортимер, Патришия Кларксон, Джеки Эрл Хейли, Тед Левайн, Джон Кэрролл Линч, Элиас Котеас, Робин Бартлетт, Кристофер Денхам, Нелли Скиутто, Джозеф Сикора, Кёртисс Кук, Рэймонд Энтони Томас, Джозеф МакКенна, Руби Джеринс, Том Кемп, Бейтс Уайлдер, Ларс Герхард, Мэттью Коулз, Джилл Ларсон, Зиад Аки, Дэннис Линч, Джон Порелл, Джозеф П. Рейди-Описание:
Два американских судебных пристава отправляются на один из островов в штате Массачусетс, чтобы расследовать исчезновение пациентки клиники для умалишенных преступников. При проведении расследования им придется столкнуться с паутиной лжи, обрушившимся ураганом и смертельным бунтом обитателей клиники.-Фильм снят по мотивам романа Денниса Лихэйна «Остров проклятых» (Shutter Island, 2003).
В комплексе «С» можно услышать, как один из больных шепчет: «Остановите меня, пока я не убил еще больше людей», что, вероятно, является ссылкой на серийного убийцу Уильяма Хайренса.
Расстрел пленных немцев американскими солдатами действительно имел место в Дахау 29 апреля 1945 года.
Оригинальное название может быть также переведено как «Остров-ловушка».
Изначально продюсеры хотели, чтобы постановкой картины занялся Вольфганг Петерсен, но позже предпочли ему Мартина Скорсезе. Дэвид Финчер так же рассматривался на пост режиссера.
За основу был взят остров Педдокс из штата Мэн (национальный парк Акадия). Крупные горы были добавлены на стадии постпроизводства.
Релиз фильма был перенесен с октября 2009 на февраль 2010. Изначально фильм рассматривался студией Paramount в качестве возможного номинанта на «Оскар». Однако ближе к концу года стало ясно, что студия будет продвигать на «Оскар» «Мне бы в небо» (2009) и «Милые кости» (2009). Студия не смогла найти -60 миллионов, необходимые для рекламной кампании под «Оскар». Вдобавок, в конце 2009 года Леонардо ДиКаприо не мог заниматься рекламой фильма из-за занятости на других проектах. В итоге, студия перенесла премьеру на февраль.
Это четвертый совместный проект Мартина Скорсезе и Леонардо ДиКаприо. Предыдущие фильмы — «Банды Нью-Йорка» (2002), «Авиатор» (2004) и «Отступники» (2006).
Для создания атмосферы картины Мартин Скорсезе искал вдохновение в зомби-фильмах Вэла Льютона.
Чтобы актеры имели представление, как стилистически будет выглядеть фильм, Мартин Скорсезе показал им «Из прошлого» (1947) и «Головокружение» (1958).
Shutter Island является анаграммой «Truths and Lies» (правда и ложь) и «Truths / Denials» (правда/отрицание).-

Награды

Награды:
Сатурн, 2011 год
Номинации: Лучший фильм ужасов / триллер, Лучший режиссер (Мартин Скорсезе), Лучший актер (Леонардо ДиКаприо), Лучший актер второго плана (Марк Руффало), Лучшие декорации
Жорж, 2011 год
Победитель: Лучшая зарубежная драма
- --Сэмпл--Качество видео: BDRip (спасибо -DaRkY-)
Формат видео: AVI
Видео кодек: XviD
Аудио кодек: АС3
Видео: 720x304 (2.37:1), 23.976 fps, XviD, ~1311 kbps avg, 0.25 bit/pixel
Аудио: 48 kHz, AC3 Dolby Digital, 2/0 (L,R) ch, ~192.00 kbps avg

MI

General
Complete name : D:\Ostrov.Proklyatih.2010.BDRip.avi
Format : AVI
Format/Info : Audio Video Interleave
File size : 1.46 GiB
Duration : 2h 18mn
Overall bit rate : 1 513 Kbps
Writing application : VirtualDubMod 1.5.10.3 (build 2550/release)
Writing library : VirtualDubMod build 2550/release
Video
ID : 0
Format : MPEG-4 Visual
Format profile : Advanced Simple@L5
Format settings, BVOP : 1
Format settings, QPel : No
Format settings, GMC : No warppoints
Format settings, Matrix : Custom
Codec ID : XVID
Codec ID/Hint : XviD
Duration : 2h 18mn
Bit rate : 1 311 Kbps
Width : 720 pixels
Height : 304 pixels
Display aspect ratio : 2.35:1
Frame rate : 23.976 fps
Color space : YUV
Chroma subsampling : 4:2:0
Bit depth : 8 bits
Scan type : Progressive
Compression mode : Lossy
Bits/(Pixel*Frame) : 0.250
Stream size : 1.26 GiB (87%)
Writing library : XviD 64
Audio
ID : 1
Format : AC-3
Format/Info : Audio Coding 3
Mode extension : CM (complete main)
Codec ID : 2000
Duration : 2h 18mn
Bit rate mode : Constant
Bit rate : 192 Kbps
Channel(s) : 2 channels
Channel positions : Front: L R
Sampling rate : 48.0 KHz
Bit depth : 16 bits
Compression mode : Lossy
Stream size : 190 MiB (13%)
Alignment : Split accross interleaves
Interleave, duration : 42 ms (1.00 video frame)
Interleave, preload duration : 500 ms

Скриншоты

[Профиль] [ЛС]
Показать сообщения:    
Ответить на тему

Текущее время: 11-Дек 10:01

Часовой пояс: UTC + 4



Вы не можете начинать темы
Вы не можете отвечать на сообщения
Вы не можете редактировать свои сообщения
Вы не можете удалять свои сообщения
Вы не можете голосовать в опросах
Вы не можете прикреплять файлы к сообщениям
Вы не можете скачивать файлы
Анализ веб сайтов Яндекс.Метрика Рейтинг@Mail.ru