Братья из Гримсби / Grimsby (Луи Летерье) [2016, боевик, комедия, WEB-DL 720p]

Тема закрыта
 
Автор Сообщение

blacKK ®

Оффлайн

 Активный релизер 250 Активный релизер 500
 Друг трекера

Пол: Мужской

Стаж: 1 год 3 месяца

Наличие запрета:

Сообщений: 776

Откуда: Москва

Отдача: 2 Mb/s

Загрузка: 20 Mb/s

Нажми

Создавать темы 25-Май-2016 21:14

[Цитировать]

Братья из Гримсби / Grimsby
«One secret agent. One complete idiot»

Год выпуска: 2016
Страна: Великобритания , Австралия
Жанр: боевик, комедия
Продолжительность: 01:23:25
Перевод: Профессиональный (дублированный)[чистый звук]
Субтитры: английские
Режиссер: Луи Летерье
В ролях: Саша Барон Коэн☆Sacha Baron Cohen (Nobby), Марк Стронг☆Mark Strong (Sebastian Graves), Ребел Уилсон☆Rebel Wilson (Dawn Grobham), Пенелопа Крус☆Penélope Cruz (Rhonda George), Айла Фишер☆Isla Fisher (Jodie Figgis), Габури Сидибе☆Gabourey Sidibe (Banu), Аннабелль Уоллис☆Annabelle Wallis (Lina Smit), Иэн МакШейн☆Ian McShane (MI6 Spy Boss), Дэвид Хэрвуд☆David Harewood (Black Gareth), Рикки Томлинсон☆Ricky Tomlinson (Paedo Pete), Джонни Вегас☆Johnny Vegas (Milky Pimms), Скотт Эдкинс☆Scott Adkins (Pavel Lukashenko)

Описание: Сверхсекретная операция, которую выполняет образцовый спецагент, с треском провалена из-за некстати свалившегося на его голову неадекватного брата — оголтелого футбольного фаната и полного беспредельщика. Теперь герою предстоит спасти свою жизнь и вдобавок планету от нависшей над ней угрозы — практически невыполнимая задача в тандеме с вновь приобретенным родственником.
Сборы в США: $6 874 837
Сборы в мире: + $18 242 536 = $25 117 373
Сборы в России: $2 324 397
Рейтинг MPAA: Лицам до 17 лет обязательно присутствие взрослого

Качество: WEB-DL 720p
Формат: MKV
Видео кодек: AVC
Аудио кодек: AC3
Видео: 1280x532 (2.40:1), 23.976 fps, <a href="mailto:High@L3.1" class="postLink">High@L3.1</a>, 3 920 Kbps
Аудио #1: Rus AC3, 384 Kbps, 48.0 KHz, 2 ch
Аудио #2: Eng AC3, 384 Kbps, 48.0 KHz, 6 ch

Знаете ли Вы, что...

» Многим жителям Гримсби не понравилось, что Коэн изобразил их город замусоренным гетто, в котором пьяницы мочатся прямо на улицу из окон, а матери предлагают детям пиво.
» 13 февраля 2014 года производство фильма перешло от «Paramount Pictures» компании «Columbia Pictures».

MediaInfo

Format : Matroska
Format version : Version 4 / Version 2
File size : 2.79 GiB
Duration : 1h 23mn
Overall bit rate : 4 783 Kbps
Encoded date : UTC 2010-02-22 21:41:31
Writing application : mkvmerge v5.8.0 ('No Sleep / Pillow') built on Nov 13 2012 19:43:22
Writing library : libebml v1.3.0 + libmatroska v1.4.0
Video
ID : 1
Format : AVC
Format/Info : Advanced Video Codec
Format profile : <a href="mailto:Main@L3.1" class="postLink">Main@L3.1</a>
Format settings, CABAC : No
Format settings, ReFrames : 2 frames
Codec ID : V_MPEG4/ISO/AVC
Duration : 1h 23mn
Bit rate : 3 920 Kbps
Width : 1 280 pixels
Height : 532 pixels
Display aspect ratio : 2.40:1
Frame rate mode : Constant
Frame rate : 23.976 fps
Color space : YUV
Chroma subsampling : 4:2:0
Bit depth : 8 bits
Scan type : Progressive
Bits/(Pixel*Frame) : 0.240
Stream size : 2.28 GiB (82%)
Language : English
Default : Yes
Forced : No
Color range : Limited
Color primaries : BT.709
Transfer characteristics : BT.709
Matrix coefficients : BT.709
Audio #1
ID : 2
Format : AC-3
Format/Info : Audio Coding 3
Mode extension : CM (complete main)
Format settings, Endianness : Big
Codec ID : A_AC3
Duration : 1h 23mn
Bit rate mode : Constant
Bit rate : 384 Kbps
Channel(s) : 2 channels
Channel positions : Front: L R
Sampling rate : 48.0 KHz
Frame rate : 31.250 fps (1536 spf)
Compression mode : Lossy
Stream size : 229 MiB (8%)
Language : Russian
Default : Yes
Forced : No
Audio #2
ID : 3
Format : AC-3
Format/Info : Audio Coding 3
Mode extension : CM (complete main)
Format settings, Endianness : Big
Codec ID : A_AC3
Duration : 1h 23mn
Bit rate mode : Constant
Bit rate : 384 Kbps
Channel(s) : 6 channels
Channel positions : Front: L C R, Side: L R, LFE
Sampling rate : 48.0 KHz
Frame rate : 31.250 fps (1536 spf)
Compression mode : Lossy
Stream size : 229 MiB (8%)
Language : English
Default : No
Forced : No
Text
ID : 4
Format : UTF-8
Codec ID : S_TEXT/UTF8
Codec ID/Info : UTF-8 Plain Text
Language : English
Default : No
Forced : No
Menu
00:00:00.000 : en:1
00:06:53.413 : en:2
00:11:00.076 : en:3
00:16:23.983 : en:4
00:21:36.712 : en:5
00:26:42.809 : en:6
00:31:45.945 : en:7
00:36:47.788 : en:8
00:41:56.138 : en:9
00:46:54.060 : en:10
00:52:18.676 : en:11
00:57:27.568 : en:12
01:01:26.932 : en:13
01:06:15.220 : en:14
01:11:51.180 : en:15
01:16:24.995 : en:16

Скриншоты

[Профиль] [ЛС]

Создавать темы 26-Июл-2016 16:50 (спустя 2 месяца)

Топик был перенесен из форума Высокое качество в форум Архив
Причина переноса: Поглощено в пользу: http://free-tor.com/viewtopic.php?t=3714
4udaki
 
Показать сообщения:    
Тема закрыта

Текущее время: 09-Дек 01:58

Часовой пояс: UTC + 4



Вы не можете начинать темы
Вы не можете отвечать на сообщения
Вы не можете редактировать свои сообщения
Вы не можете удалять свои сообщения
Вы не можете голосовать в опросах
Вы не можете прикреплять файлы к сообщениям
Вы не можете скачивать файлы
Анализ веб сайтов Яндекс.Метрика Рейтинг@Mail.ru