Крик / Scream / [s2x01-02 из 10] (Ли Джаньяк, Джулиус Рамсей, Джеми Трэвис) [2016 г., Ужасы, криминал, детектив, HDTVRip 720p] MVO (Jaskier) + Original

Ответить на тему
 
Автор Сообщение

4udaki ®

Оффлайн



Пол: Мужской

Стаж: 2 года 1 месяц

Наличие запрета:

Сообщений: 2535

Откуда: free-tor.com

Отдача: 2 Mb/s

Загрузка: 20 Mb/s

Нажми

Создавать темы 03-Июн-2016 22:20

[Цитировать]

Крик | Scream -Оригинальное название: Scream
Русское название: Крик
Год выпуска: 2016
Страна: США
Жанр: Ужасы, криминал, детектив
Продолжительность: ~45 минут-Перевод: Профессиональный (многоголосый закадровый) Студия Jaskier
Субтитры: Нет-Режиссёры: Ли Джаньяк, Джулиус Рамсей, Джеми Трэвис-Рейтинг:
-В ролях: Уилла Фицджералд, Бекс Тейлор-Клаус, Карлсон Янг, Джон Карна, Коннор Вейл, Бобби Кампо, Амадеус Серафини, Том Мэден, Трэйси Миддендорф, Майк Вони др.-Описание: То, что начиналось как обычное видео на YouTube, вскоре оборачивается проблемами для подростков Лейквуда и служит катализатором для убийства, которое открывает окно в тяжелое прошлое города.-Сэмпл-Качество: HDTVRip 720p
Формат: MKV
Видео кодек: AVC
Аудио кодек: AC3
Видео: AVC, 1280x720, 23.976 fps, ~2600kbps, ~0.119 bit/pixel-Аудио 1: Dolby AC3, 48 kHz, stereo,192 kbps Русский
Аудио 2: Dolby AC3, 48 kHz, 6ch, 384 kbps Оригинал (Английский)-

MediaInfo

General
Unique ID                      : 182541440172853736836557966296653061530 (0x895433DBC2FD020F86E6E7C800355D9A)
Complete name                  : Z:\HD\Scream. Seson 2 (HDTVRip l 720p l Jaskier)\Scream.The.TV.Series.S02E01.720p.HDTV.x264-JASKiER.mkv
Format                         : Matroska
Format version                 : Version 1
File size                      : 981 MiB
Duration                       : 41mn 58s
Overall bit rate               : 3 267 Kbps
Encoded date                   : UTC 2016-05-31 21:19:08
Writing application            : mkvmerge v2.3.0 ('Freak U') built on Sep  8 2008 18:32:16
Writing library                : libebml v0.7.7 + libmatroska v0.8.1
Video
ID                             : 1
Format                         : AVC
Format/Info                    : Advanced Video Codec
Format profile                 : High@L4.1
Format settings, CABAC         : Yes
Format settings, ReFrames      : 5 frames
Codec ID                       : V_MPEG4/ISO/AVC
Duration                       : 41mn 58s
Bit rate                       : 2 626 Kbps
Width                          : 1 280 pixels
Height                         : 720 pixels
Display aspect ratio           : 16:9
Frame rate                     : 23.976 fps
Color space                    : YUV
Chroma subsampling             : 4:2:0
Bit depth                      : 8 bits
Scan type                      : Progressive
Bits/(Pixel*Frame)             : 0.119
Stream size                    : 788 MiB (80%)
Language                       : English
Default                        : Yes
Forced                         : No
Audio #1
ID                             : 2
Format                         : AC-3
Format/Info                    : Audio Coding 3
Mode extension                 : CM (complete main)
Format settings, Endianness    : Big
Codec ID                       : A_AC3
Duration                       : 41mn 58s
Bit rate mode                  : Constant
Bit rate                       : 192 Kbps
Channel(s)                     : 2 channels
Channel positions              : Front: L R
Sampling rate                  : 48.0 KHz
Bit depth                      : 16 bits
Compression mode               : Lossy
Delay relative to video        : 31ms
Stream size                    : 57.6 MiB (6%)
Language                       : Russian
Default                        : Yes
Forced                         : No
Audio #2
ID                             : 3
Format                         : AC-3
Format/Info                    : Audio Coding 3
Mode extension                 : CM (complete main)
Format settings, Endianness    : Big
Codec ID                       : A_AC3
Duration                       : 41mn 58s
Bit rate mode                  : Constant
Bit rate                       : 384 Kbps
Channel(s)                     : 6 channels
Channel positions              : Front: L C R, Side: L R, LFE
Sampling rate                  : 48.0 KHz
Bit depth                      : 16 bits
Compression mode               : Lossy
Delay relative to video        : 31ms
Stream size                    : 115 MiB (12%)
Language                       : English
Default                        : No
Forced                         : No
Text
ID                             : 4
Format                         : UTF-8
Codec ID                       : S_TEXT/UTF8
Codec ID/Info                  : UTF-8 Plain Text
Title                          : English
Language                       : English
Default                        : Yes
Forced                         : No
-

Скриншоты

[thumb]http://s019.[radikal временно запрещен]/i626/1605/2f/1a78052f4357.png[/thumb][thumb]http://s019.[radikal временно запрещен]/i632/1605/bc/2ee049412905.png[/thumb][thumb]http://s018.[radikal временно запрещен]/i523/1605/3c/446ce57b711b.png[/thumb]
-08.06.2016 обновлено. Добавлена 2-я серия.
[Профиль] [ЛС]
Показать сообщения:    
Ответить на тему

Текущее время: 06-Дек 00:37

Часовой пояс: UTC + 4



Вы не можете начинать темы
Вы не можете отвечать на сообщения
Вы не можете редактировать свои сообщения
Вы не можете удалять свои сообщения
Вы не можете голосовать в опросах
Вы не можете прикреплять файлы к сообщениям
Вы не можете скачивать файлы
Анализ веб сайтов Яндекс.Метрика Рейтинг@Mail.ru