Сезон охоты: Байки из леса / Open Season: Scared Silly (Дэвид Фейсс) [2015, мультфильм, комедия, приключения, BDRip 1080p] [iTunes]

Ответить на тему
 
Автор Сообщение

blacKK ®

Оффлайн

 Активный релизер 250 Активный релизер 500
 Друг трекера

Пол: Мужской

Стаж: 1 год 3 месяца

Наличие запрета:

Сообщений: 777

Откуда: Москва

Отдача: 2 Mb/s

Загрузка: 20 Mb/s

Нажми

Создавать темы 14-Июн-2016 12:17

[Цитировать]

Сезон охоты: Байки из леса / Open Season: Scared Silly -
Информация:
  • Год выпуска: 2015
  • Жанр: мультфильм, комедия, приключения, семейный
  • Страна:: США
  • Длительность:: 01:24:45
  • Перевод:: Дубляж - [iTunes]
  • Субтитры: Romanian (full),
    английские (forced),
    английские (full),
    английские (SDH),
    английские (Commentary with Director David Feiss),

  • Режиссер: Дэвид Фейсс -
  • В ролях::
    -Уилльям Таунсенд (Elliot / Mr. Weenie, озвучка), Мелисса Штурм (Giselle, озвучка), Тревор Дивэлл (Shaw / Werewolf / Deputy #1, озвучка), Гари Чок (Ed, озвучка), Брайан Драммонд (Ian / Reilly / Tree-Hugger Man, озвучка), Кэтлин Барр (Edna / Bobbie / Tree-Hugger Lady, озвучка), Шеннон Чан-Кент (Rosie / Marcia, озвучка), Мишель Мурдокка (Maria, озвучка), Питер Келамис (Serge, озвучка), Мэттью В. Тейлор (дополнительные голоса, озвучка, в титрах не указан), Фрэнк Уэлкер (Animals' vocal effects, озвучка, в титрах не указан), Лорни Кардинал (Sheriff Gordy, озвучка)
Описание:
Олень Эллиот, такса Сосиска и их друзья сговариваются отучить медведя Буга бояться всего на свете. Услышав у ночного костра байку про Свирепого Волка-Оборотня, могучий гризли совсем потерял покой и стал вести себя как трусливая мышь. Из-за этого у компании срываются классные каникулы. Чтобы «спугнуть» напрасные медвежьи страхи, Эллиот и Сосиска снаряжают экспедицию в Тёмный Лес, открывая на его самого загадочного обитателя... свой сезон охоты. Но все прошлые приключения меркнут по сравнению с тем, что ждёт лесную команду в этот раз. Головокружительные погони, уморительные шутки и крутые сюжетные повороты - в первой мульт-комедии лета.

-Рейтинг:
- Тех.Данные:
  • Качество: BDRip 1080p
  • Формат: MKV
  • Видео: AVC, 1920x1080 (16:9), 9270 kbps, 23,976 fps, 0,186 bpp
  • Аудио №1: русский / AC3 / 5.1 / 48 kHz / 384 kbps / 16 bit ||
  • Аудио №2: английский / DTS / 5.1 / 48 kHz / 1510 kbps / 24 bit
  • Навигация по главам: есть
    -

    ОтчетМедиаИнфо

    General
    Unique ID                                : 198204664989390017326187429850258612096 (0x951CD47714B745E7AC8D5C9D2CF01F80)
    Complete name                            : D:\Загрузки\Ce30H.0x0ty.ba1ki.i3.LeCa.2015.D.BDRip.1080p.mkv
    Format                                   : Matroska
    Format version                           : Version 2
    File size                                : 6.74 GiB
    Duration                                 : 1h 24mn
    Overall bit rate                         : 11.4 Mbps
    Movie name                               : released by aldershot
    Encoded date                             : UTC 2016-06-14 03:19:24
    Writing application                      : mkvmerge v8.3.0 ('Over the Horizon') 64bit
    Writing library                          : libebml v1.3.1 + libmatroska v1.4.2
    Video
    ID                                       : 1
    Format                                   : AVC
    Format/Info                              : Advanced Video Codec
    Format profile                           : [email protected]
    Format settings, CABAC                   : Yes
    Format settings, ReFrames                : 4 frames
    Codec ID                                 : V_MPEG4/ISO/AVC
    Duration                                 : 1h 24mn
    Bit rate                                 : 9 271 Kbps
    Width                                    : 1 920 pixels
    Height                                   : 1 080 pixels
    Display aspect ratio                     : 16:9
    Frame rate                               : 23.976 fps
    Color space                              : YUV
    Chroma subsampling                       : 4:2:0
    Bit depth                                : 8 bits
    Scan type                                : Progressive
    Bits/(Pixel*Frame)                       : 0.186
    Stream size                              : 5.49 GiB (81%)
    Title                                    : EbP
    Writing library                          : x264 core 146 r0+2586 e393126 t_mod_Custom [[email protected] X86_64]
    Encoding settings                        : cabac=1 / ref=4 / deblock=1:1:1 / analyse=0x3:0x113 / me=umh / subme=11 / psy=1 / fade_compensate=0.00 / psy_rd=0.45:0.00 / mixed_ref=1 / me_range=32 / chroma_me=1 / trellis=2 / 8x8dct=1 / cqm=0 / deadzone=21,11 / fast_pskip=0 / chroma_qp_offset=-2 / threads=18 / lookahead_threads=3 / sliced_threads=0 / nr=0 / decimate=0 / interlaced=0 / bluray_compat=0 / constrained_intra=0 / fgo=0 / bframes=8 / b_pyramid=2 / b_adapt=2 / b_bias=0 / direct=3 / weightb=1 / open_gop=0 / weightp=2 / keyint=240 / keyint_min=23 / scenecut=40 / intra_refresh=0 / rc_lookahead=60 / rc=crf / mbtree=0 / crf=16.6000 / qcomp=0.55 / qpmin=0:0:0 / qpmax=69:69:69 / qpstep=4 / vbv_maxrate=62500 / vbv_bufsize=78125 / crf_max=0.0 / nal_hrd=none / filler=0 / ip_ratio=1.40 / pb_ratio=1.28 / aq=3:0.80 / aq-sensitivity=10.00 / aq-factor=1.00:1.00:1.00 / aq2=0 / aq3=0 / zones=619,14991,crf=15.7/20108,27271,crf=15.7/40271,42603,crf=15.7/77695,79468,crf=15.7/83452,112852,crf=15.7
    Language                                 : English
    Default                                  : Yes
    Forced                                   : No
    Color primaries                          : BT.709-5, BT.1361, IEC 61966-2-4, SMPTE RP177
    Transfer characteristics                 : BT.709-5, BT.1361
    Matrix coefficients                      : BT.709-5, BT.1361, IEC 61966-2-4 709, SMPTE RP177
    Audio #1
    ID                                       : 2
    Format                                   : AC-3
    Format/Info                              : Audio Coding 3
    Mode extension                           : CM (complete main)
    Codec ID                                 : A_AC3
    Duration                                 : 1h 24mn
    Bit rate mode                            : Constant
    Bit rate                                 : 384 Kbps
    Channel(s)                               : 6 channels
    Channel positions                        : Front: L C R, Side: L R, LFE
    Sampling rate                            : 48.0 KHz
    Bit depth                                : 16 bits
    Compression mode                         : Lossy
    Stream size                              : 233 MiB (3%)
    Language                                 : Russian
    Default                                  : Yes
    Forced                                   : No
    Audio #2
    ID                                       : 3
    Format                                   : DTS
    Format/Info                              : Digital Theater Systems
    Codec ID                                 : A_DTS
    Duration                                 : 1h 24mn
    Bit rate mode                            : Constant
    Bit rate                                 : 1 510 Kbps
    Channel(s)                               : 6 channels
    Channel positions                        : Front: L C R, Side: L R, LFE
    Sampling rate                            : 48.0 KHz
    Bit depth                                : 24 bits
    Compression mode                         : Lossy
    Stream size                              : 915 MiB (13%)
    Title                                    : DTS 5.1 @ 1536 Kbps, Original
    Language                                 : English
    Default                                  : No
    Forced                                   : No
    Text #1
    ID                                       : 4
    Format                                   : UTF-8
    Codec ID                                 : S_TEXT/UTF8
    Codec ID/Info                            : UTF-8 Plain Text
    Title                                    : full
    Language                                 : Romanian
    Default                                  : No
    Forced                                   : No
    Text #2
    ID                                       : 5
    Format                                   : UTF-8
    Codec ID                                 : S_TEXT/UTF8
    Codec ID/Info                            : UTF-8 Plain Text
    Title                                    : forced
    Language                                 : English
    Default                                  : Yes
    Forced                                   : No
    Text #3
    ID                                       : 6
    Format                                   : UTF-8
    Codec ID                                 : S_TEXT/UTF8
    Codec ID/Info                            : UTF-8 Plain Text
    Title                                    : full
    Language                                 : English
    Default                                  : No
    Forced                                   : No
    Text #4
    ID                                       : 7
    Format                                   : UTF-8
    Codec ID                                 : S_TEXT/UTF8
    Codec ID/Info                            : UTF-8 Plain Text
    Title                                    : SDH
    Language                                 : English
    Default                                  : No
    Forced                                   : No
    Text #5
    ID                                       : 8
    Format                                   : UTF-8
    Codec ID                                 : S_TEXT/UTF8
    Codec ID/Info                            : UTF-8 Plain Text
    Title                                    : Commentary with Director David Feiss
    Language                                 : English
    Default                                  : No
    Forced                                   : No
    Menu
    00:00:00.000                             : en:CHAPTER01
    00:05:02.636                             : en:CHAPTER02
    00:10:01.309                             : en:CHAPTER03
    00:13:58.671                             : en:CHAPTER04
    00:18:57.470                             : en:CHAPTER05
    00:25:54.887                             : en:CHAPTER06
    00:33:20.916                             : en:CHAPTER07
    00:39:17.230                             : en:CHAPTER08
    00:42:02.103                             : en:CHAPTER09
    00:47:39.356                             : en:CHAPTER10
    00:54:00.529                             : en:CHAPTER11
    00:58:00.644                             : en:CHAPTER12
    01:03:17.460                             : en:CHAPTER13
    01:08:40.366                             : en:CHAPTER14
    01:14:53.656                             : en:CHAPTER15
    01:18:20.905                             : en:CHAPTER16
    -Скриншоты:
    [thumb]http://s020.[radikal временно запрещен]/i714/1606/f8/14568cd672da.png[/thumb] [thumb]http://s020.[radikal временно запрещен]/i720/1606/53/825551fcdc0e.png[/thumb] [thumb]http://i026.[radikal временно запрещен]/1606/6d/1df381ef7525.png[/thumb]
    - © Оформление by SAV
  • [Профиль] [ЛС]
    Показать сообщения:    
    Ответить на тему

    Текущее время: 10-Дек 06:56

    Часовой пояс: UTC + 4



    Вы не можете начинать темы
    Вы не можете отвечать на сообщения
    Вы не можете редактировать свои сообщения
    Вы не можете удалять свои сообщения
    Вы не можете голосовать в опросах
    Вы не можете прикреплять файлы к сообщениям
    Вы не можете скачивать файлы
    Анализ веб сайтов Яндекс.Метрика Рейтинг@Mail.ru