Преступник / Criminal (Ариэль Вромен / Ariel Vromen) [2016, Фантастика, Боевик, Триллер, Криминал, BDRip, 1080p-LQ] DUB (iTunes Russia)

Ответить на тему
 
Автор Сообщение

Consumer ®

Оффлайн



Пол: Мужской

Стаж: 4 месяца 15 дней

Наличие запрета:

Сообщений: 206

Откуда: с Урала

Отдача: не определено

Загрузка: не определено

Нажми

Создавать темы 18-Июл-2016 21:11

[Цитировать]

[img=right]http://s016.[radikal временно запрещен]/i335/1607/a9/c6c12ef375b8.jpg[/img] Преступник / Criminal --«The CIA's last hope is in the mind of a criminal» ---Год: 2016
Производство: Великобритания, США
Жанр: Фантастика, Боевик, Триллер, Криминал
Продолжительность: 01:53:34
Перевод: Дублированный (iTunes Russia)
Язык субтитров: Английский
Актеры: Кевин Костнер, Гари Олдман, Томми Ли Джонс, Райан Рейнольдс, Элис Ив, Галь Гадот, Хорди Молья, Майкл Питт, Амори Ноласко, Антье Трауэ
Режиссер: Ариэль Вромен

Возраст: 18+ (зрителям, достигшим 18 лет. запрещено для детей)
Рейтинг MPAA: R (лицам до 17 лет обязательно присутствие взрослого)
Описание:
В последней отчаянной попытке остановить катастрофу мирового масштаба генетики осуществляют невероятную операцию по вживлению воспоминаний и умений погибшего оперативника ЦРУ в тело опасного заключенного с надеждой, что тот доведет до конца прерванную миссию агента.

Качество видео: BDRip [url=http://[radikal временно запрещен]/video/pFGDZ7JHRm] SAMPLE[/url]
Видео: AVC/H.264, 1920x804, ~5 000 Kbps
Аудио: AC3, 6 ch, 384 Kbps

Mediainfo:

General
Unique ID                   : 140198399346789066252499450802207288890 (0x69793AC38206F99105722F0071096E3A)
Complete name               : C:\777\Criminal (2016) 1080p BDRip.mkv
Format                      : Matroska
Format version              : Version 4 / Version 2
File size                   : 4.27 GiB
Duration                    : 1h 53mn
Overall bit rate            : 5 387 Kbps
Encoded date                : UTC 2016-07-17 05:09:05
Writing application         : Lavf57.37.100
Writing library             : Lavf57.37.100 / Lavf57.37.100
Video
ID                          : 1
Format                      : AVC
Format/Info                 : Advanced Video Codec
Format profile              : [url=mailto:High@L4.1]High@L4.1[/url]
Format settings, CABAC      : No
Format settings, ReFrames   : 2 frames
Codec ID                    : V_MPEG4/ISO/AVC
Duration                    : 1h 53mn
Bit rate                    : 5 000 Kbps
Width                       : 1 920 pixels
Height                      : 804 pixels
Display aspect ratio        : 2.35:1
Frame rate mode             : Constant
Frame rate                  : 23.976 (24000/1001) fps
Color space                 : YUV
Chroma subsampling          : 4:2:0
Bit depth                   : 8 bits
Scan type                   : Progressive
Bits/(Pixel*Frame)          : 0.135
Stream size                 : 3.88 GiB (91%)
Writing library             : x264 core 148 r2643
Encoding settings           : cabac=0 / ref=2 / deblock=1:3:2 / analyse=0x3:0x113 / me=hex / subme=7 / psy=1 / psy_rd=1.00:0.00 / mixed_ref=0 / me_range=16 / chroma_me=1 / trellis=2 / 8x8dct=1 / cqm=0 / deadzone=21,11 / fast_pskip=1 / chroma_qp_offset=-2 / threads=12 / lookahead_threads=2 / sliced_threads=0 / nr=0 / decimate=1 / interlaced=0 / bluray_compat=0 / constrained_intra=0 / bframes=2 / b_pyramid=0 / b_adapt=2 / b_bias=0 / direct=3 / weightb=0 / open_gop=0 / weightp=2 / keyint=239 / keyint_min=23 / scenecut=40 / intra_refresh=0 / rc_lookahead=40 / rc=2pass / mbtree=1 / bitrate=5000 / ratetol=1.0 / qcomp=0.60 / qpmin=10 / qpmax=69 / qpstep=4 / cplxblur=20.0 / qblur=0.5 / vbv_maxrate=5300 / vbv_bufsize=24000 / nal_hrd=none / filler=0 / ip_ratio=1.40 / aq=3:1.30
Default                     : Yes
Forced                      : No
DURATION                    : 01:53:34.850000000
Audio
ID                          : 2
Format                      : AC-3
Format/Info                 : Audio Coding 3
Mode extension              : CM (complete main)
Format settings, Endianness : Big
Codec ID                    : A_AC3
Duration                    : 1h 53mn
Bit rate mode               : Constant
Bit rate                    : 384 Kbps
Channel(s)                  : 6 channels
Channel positions           : Front: L C R, Side: L R, LFE
Sampling rate               : 48.0 KHz
Frame rate                  : 31.250 fps (1536 spf)
Compression mode            : Lossy
Stream size                 : 312 MiB (7%)
Language                    : Russian
Default                     : Yes
Forced                      : No
DURATION                    : 01:53:34.432000000
Text
ID                          : 3
Format                      : PGS
Codec ID                    : S_HDMV/PGS
Codec ID/Info               : Picture based subtitle format used on BDs/HD-DVDs
Language                    : English
Default                     : Yes
Forced                      : No
DURATION                    : 01:44:34.515000000

Знаете ли вы, что...

• Николас Кейдж отказался от главной роли.
• Съёмки фильма пришлось отложить на неделю из-за того, что Томми Ли Джонс сломал себе рёбра.
• Занятые в фильме Гари Олдмен, Кевин Костнер и Томми Ли Джонс снимались вместе в фильме «Джон Ф. Кеннеди: Выстрелы в Далласе» (1991).
• Гари Олдмен и Майкл Питт играли роль Мейсона Верджера. Олдмен появился в этой роли в фильме «Ганнибал» (2001), а Питт - в нескольких эпизодах второго и третьего сезона одноимённого сериала (2013-2015).
• Это уже второй фильм в жанре «экшн» с Томми Ли Джонсом в 2016 году. Первым станет «Механик: Воскрешение» (2016), после чего выйдет пока ещё не получившее названия продолжение фильмов о Джейсоне Борне с Мэттом Дэймоном. В этом фильме и в фильме «Механик: Воскрешение» снялась актриса Наталия Гуслистая.

Скриншоты:

[thumb]http://s020.[radikal временно запрещен]/i714/1607/99/3eacd15feba1.png[/thumb][thumb]http://s50.[radikal временно запрещен]/i128/1607/7f/7e0a76340915.png[/thumb][thumb]http://s020.[radikal временно запрещен]/i717/1607/d3/069a02063ffe.png[/thumb][thumb]http://s017.[radikal временно запрещен]/i432/1607/a6/3a247e510971.png[/thumb]
[Профиль] [ЛС]
Показать сообщения:    
Ответить на тему

Текущее время: 03-Дек 13:32

Часовой пояс: UTC + 4



Вы не можете начинать темы
Вы не можете отвечать на сообщения
Вы не можете редактировать свои сообщения
Вы не можете удалять свои сообщения
Вы не можете голосовать в опросах
Вы не можете прикреплять файлы к сообщениям
Вы не можете скачивать файлы
Анализ веб сайтов Яндекс.Метрика Рейтинг@Mail.ru