Костюмер / The Dresser (Ричард Эйр / Richard Eyre) [2015, Драма, HDTVRip, 720p-LQ]

Ответить на тему
 
Автор Сообщение

Consumer ®

Оффлайн



Пол: Мужской

Стаж: 4 месяца 15 дней

Наличие запрета:

Сообщений: 206

Откуда: с Урала

Отдача: не определено

Загрузка: не определено

Нажми

Создавать темы 19-Июл-2016 19:00

[Цитировать]

Костюмер / The Dresser -Год: 2015
Производство: Великобритания
Жанр: Драма
Продолжительность: 01:44:29
Перевод: Многоголосый закадровый, профессиональный (GreenРай)
Актеры: Эмили Уотсон, Иэн МакКеллен, Сара Ланкашир, Энтони Хопкинс, Ванесса Кирби, Эдвард Фокс, Том Брук, Иэн Коннингхэм, Джон Эштон, Хелен Брэдбери
Режиссер: Ричард Эйр

Описание:
Главный герой, пожилой человек, известный и талантливый актер театра, какую бы роль ему не пришлось сыграть, он относится к ней очень ответственно, буквально пропиталась ей до последней капли. Из за такого подхода к своей работе, он получает море оваций и всегда грандиозный успех. Мало кто знает, что его хороший друг, работающий у него костюмером много лет, во всем помогает ему и делает очень важную работу. Он прилагает огромные усилия, чтобы создать нужный образ, тем самым усиливая эффект зрелищности и спрятать болячки главного героя, карьера которого подходит к концу.
Качество видео: HDTVRip Sample
Видео: AVC/H.264, 1280x720, ~1843 kbps
Аудио 1: MP3, 2 ch, 192 kbps, CBR | Русский
Аудио 2: MP3, 2 ch, 192 kbps, CBR | Английский

Mediainfo

Общее
Уникальный идентификатор                 : 198213959934268342218176789041368476309 (0x951E9EBDC76D5F5AB3D53D38FBDB2A95)
Полное имя                               : D:\KINO 3\ABCEICO\Kostumer.2015.mkv
Формат                                   : Matroska
Версия формата                           : Version 4 / Version 2
Размер файла                             : 1,63 Гбайт
Продолжительность                        : 1 ч. 44 м.
Общий поток                              : 2229 Кбит/сек
Дата кодирования                         : UTC 2016-07-19 12:04:39
Программа кодирования                    : mkvmerge v8.6.1 ('Flying') 32bit
Библиотека кодирования                   : libebml v1.3.3 + libmatroska v1.4.4
Видео
Идентификатор                            : 1
Формат                                   : AVC
Формат/Информация                        : Advanced Video Codec
Профиль формата                          : High@L4.1
Параметр CABAC формата                   : Да
Параметр ReFrames формата                : 5 кадров
Идентификатор кодека                     : V_MPEG4/ISO/AVC
Продолжительность                        : 1 ч. 44 м.
Битрейт                                  : 1843 Кбит/сек
Ширина                                   : 1280 пикселей
Высота                                   : 720 пикселей
Соотношение сторон                       : 16:9
Режим частоты кадров                     : Постоянный
Частота кадров                           : 25,000 кадров/сек
Цветовое пространство                    : YUV
Субдискретизация насыщенности            : 4:2:0
Битовая глубина                          : 8 бит
Тип развёртки                            : Прогрессивная
Бит/(Пиксели*Кадры)                      : 0.080
Размер потока                            : 1,35 Гбайт (83%)
Библиотека кодирования                   : x264 core 148 r2638 7599210
Настройки программы                      : cabac=1 / ref=5 / deblock=1:0:0 / analyse=0x3:0x113 / me=umh / subme=8 / psy=1 / psy_rd=1.00:0.00 / mixed_ref=1 / me_range=16 / chroma_me=1 / trellis=1 / 8x8dct=1 / cqm=0 / deadzone=21,11 / fast_pskip=1 / chroma_qp_offset=-2 / threads=12 / lookahead_threads=2 / sliced_threads=0 / nr=0 / decimate=1 / interlaced=0 / bluray_compat=0 / constrained_intra=0 / bframes=3 / b_pyramid=2 / b_adapt=2 / b_bias=0 / direct=3 / weightb=1 / open_gop=0 / weightp=2 / keyint=250 / keyint_min=25 / scenecut=40 / intra_refresh=0 / rc_lookahead=50 / rc=crf / mbtree=1 / crf=18.0 / qcomp=0.60 / qpmin=0 / qpmax=69 / qpstep=4 / ip_ratio=1.40 / aq=1:1.00
Default                                  : Да
Forced                                   : Нет
colour_range                             : Limited
Коэффициенты матрицы                     : BT.709
Аудио #1
Идентификатор                            : 2
Формат                                   : MPEG Audio
Версия формата                           : Version 1
Профиль формата                          : Layer 3
Режим                                    : Joint stereo
Расширение режима                        : MS Stereo
Идентификатор кодека                     : A_MPEG/L3
Идентификатор кодека/Подсказка           : MP3
Продолжительность                        : 1 ч. 44 м.
Вид битрейта                             : Постоянный
Битрейт                                  : 192 Кбит/сек
Каналы                                   : 2 канала
Частота                                  : 48,0 КГц
Частота кадров                           : 41,667 кадра/сек (1152 spf)
Метод сжатия                             : С потерями
Размер потока                            : 143 Мбайт (9%)
Язык                                     : Russian
Default                                  : Да
Forced                                   : Нет
Аудио #2
Идентификатор                            : 3
Формат                                   : MPEG Audio
Версия формата                           : Version 1
Профиль формата                          : Layer 3
Режим                                    : Joint stereo
Расширение режима                        : MS Stereo
Идентификатор кодека                     : A_MPEG/L3
Идентификатор кодека/Подсказка           : MP3
Продолжительность                        : 1 ч. 44 м.
Вид битрейта                             : Постоянный
Битрейт                                  : 192 Кбит/сек
Каналы                                   : 2 канала
Частота                                  : 48,0 КГц
Частота кадров                           : 41,667 кадра/сек (1152 spf)
Метод сжатия                             : С потерями
Размер потока                            : 143 Мбайт (9%)
Библиотека кодирования                   : LAME3.99r
Настройки программы                      : -m j -V 4 -q 3 -lowpass 18.6 -b 192
Язык                                     : English
Default                                  : Нет
Forced                                   : Нет

Скриншоты

[Профиль] [ЛС]

Создавать темы 21-Июл-2016 18:27 (спустя 1 день 23 часа)

Топик был перенесен из форума Высокое качество в форум Для удаленных раздач
Причина переноса: Нет сидов
Vaas
 

Создавать темы 26-Июл-2016 10:30 (спустя 6 дней)

Топик был перенесен из форума Для удаленных раздач в форум Высокое качество
Причина переноса: сиды появились
4udaki
 
Показать сообщения:    
Ответить на тему

Текущее время: 03-Дек 13:35

Часовой пояс: UTC + 4



Вы не можете начинать темы
Вы не можете отвечать на сообщения
Вы не можете редактировать свои сообщения
Вы не можете удалять свои сообщения
Вы не можете голосовать в опросах
Вы не можете прикреплять файлы к сообщениям
Вы не можете скачивать файлы
Анализ веб сайтов Яндекс.Метрика Рейтинг@Mail.ru