Механик: Воскрешение / Mechanic: Resurrection (Дэннис Ганзель) [2016, боевик, триллер, криминал, BDRip 1080p | 60 FPS | Лицензия]

Ответить на тему
 
Автор Сообщение

4udaki ®

Оффлайн



Пол: Мужской

Стаж: 2 года 2 месяца

Наличие запрета:

Сообщений: 2711

Откуда: free-tor.com

Отдача: 2 Mb/s

Загрузка: 20 Mb/s

Нажми

Создавать темы 24-Ноя-2016 15:45

[Цитировать]

Год выпуска: 2016
Страна: Франция, США
Жанр: боевик, триллер, криминал
Продолжительность: 01:38:48
Перевод: Дублированный | iTunes-Режиссер: Дэннис Ганзель
В ролях: Джейсон Стэйтем, Джессика Альба, Томми Ли Джонс, Мишель Йео, Наталия Гуслистая, Ейяинг Рхатха Пхонгам, Сэм Хэзелдайн, Джон Ченатьемпо, Райчо Василев, Аарон Брамфилд-Описание: Артура Бишопа, давно оставившего свое криминальное ремесло, вынуждают снова вступить в игру. Чтобы похитители вернули его возлюбленную, он должен сделать то, что у него получается лучше всего: от него требуется совершить три убийства, идеально обставленных как несчастные случаи.-Качество: BDRip 1080p 60FPS
Формат: mkv
Видео кодек: MPEG-4 AVC
Аудио кодек: AC3
Видео: 1920х800, 10 000 kb/s , 59.940FPS
Аудио:
Аудио #01: 48 kHz, AC3, 5.1, 384 Kbps | Дублированный | iTunes |
Аудио #02: 48 kHz, TrueHD, 7.1, 5351 kbps | Оригинал |


Скриншоты

MediaInfo

General
Unique ID : 226126911664804227904338347435330583387 (0xAA1E7583B11123E9845C65FBCA8B3B5B)
Complete name : F:Торент60fpsMechanic.Resurrection.2016.BDRip.1080p.60FPS.mkv
Format : Matroska
Format version : Version 4 / Version 2
File size : 10.9 GiB
Duration : 1 h 38 min
Overall bit rate mode : Variable
Overall bit rate : 15.8 Mb/s
Movie name : GTP Mechanic.Resurrection.2016.BDRip.1080p.60FPS
Encoded date : UTC 2016-11-17 12:06:51
Writing application : mkvmerge v9.5.0 ('Quiet Fire') 64bit
Writing library : libebml v1.3.4 + libmatroska v1.4.5
Cover : Yes
Attachments : cover.jpg
Video
ID : 1
Format : AVC
Format/Info : Advanced Video Codec
Format profile : [email protected]
Format settings, CABAC : Yes
Format settings, ReFrames : 4 frames
Codec ID : V_MPEG4/ISO/AVC
Duration : 1 h 38 min
Bit rate : 10 000 kb/s
Width : 1 920 pixels
Height : 800 pixels
Display aspect ratio : 2.40:1
Frame rate mode : Constant
Frame rate : 59.940 (59940/1000) FPS
Color space : YUV
Chroma subsampling : 4:2:0
Bit depth : 8 bits
Scan type : Progressive
Bits/(Pixel*Frame) : 0.109
Stream size : 6.88 GiB (63%)
Title : GTP Mechanic.Resurrection.2016.BDRip.1080p.60FPS
Writing library : x264 core 146 r2538 121396c
Encoding settings : cabac=1 / ref=4 / deblock=1:0:0 / analyse=0x3:0x113 / me=umh / subme=11 / psy=1 / psy_rd=1.00:0.10 / mixed_ref=1 / me_range=32 / chroma_me=1 / trellis=2 / 8x8dct=1 / cqm=0 / deadzone=21,11 / fast_pskip=0 / chroma_qp_offset=-3 / threads=12 / lookahead_threads=1 / sliced_threads=0 / nr=0 / decimate=1 / interlaced=0 / bluray_compat=0 / constrained_intra=0 / bframes=5 / b_pyramid=2 / b_adapt=2 / b_bias=0 / direct=3 / weightb=1 / open_gop=0 / weightp=2 / keyint=600 / keyint_min=59 / scenecut=40 / intra_refresh=0 / rc_lookahead=40 / rc=2pass / mbtree=0 / bitrate=10000 / ratetol=1.0 / qcomp=0.60 / qpmin=0 / qpmax=69 / qpstep=4 / cplxblur=20.0 / qblur=0.5 / vbv_maxrate=14000 / vbv_bufsize=14000 / nal_hrd=none / filler=0 / ip_ratio=1.40 / pb_ratio=1.30 / aq=1:1.00
Language : English
Default : Yes
Forced : No
Audio #1
ID : 2
Format : AC-3
Format/Info : Audio Coding 3
Mode extension : CM (complete main)
Format settings, Endianness : Big
Codec ID : A_AC3
Duration : 1 h 38 min
Bit rate mode : Constant
Bit rate : 384 kb/s
Channel(s) : 6 channels
Channel positions : Front: L C R, Side: L R, LFE
Sampling rate : 48.0 kHz
Frame rate : 31.250 FPS (1536 spf)
Bit depth : 16 bits
Compression mode : Lossy
Delay relative to video : 8 s 635 ms
Stream size : 271 MiB (2%)
Title : iTunes
Language : Russian
Default : Yes
Forced : No
Audio #2
ID : 3
Format : Atmos / TrueHD
Codec ID : A_TRUEHD
Duration : 1 h 38 min
Bit rate mode : Variable
Bit rate : 5 351 kb/s
Maximum bit rate : 7 938 kb/s
Channel(s) : Object Based / 8 channels
Channel positions : Object Based / Front: L C R, Side: L R, Back: L R, LFE
Sampling rate : / 48.0 kHz
Frame rate : 1 200.000 FPS (40 spf)
Compression mode : Lossless
Delay relative to video : 8 s 636 ms
Stream size : 3.69 GiB (34%)
Title : Original
Language : English
Default : No
Forced : No
Menu
00:00:00.000 : en:00:00:00.000
00:06:34.936 : en:00:06:34.936
00:11:51.336 : en:00:11:51.336
00:18:31.277 : en:00:18:31.277
00:26:04.897 : en:00:26:04.897
00:31:57.540 : en:00:31:57.540
00:38:31.267 : en:00:38:31.267
00:43:35.696 : en:00:43:35.696
00:49:23.210 : en:00:49:23.210
00:54:20.382 : en:00:54:20.382
01:00:09.856 : en:01:00:09.856
01:05:50.446 : en:01:05:50.446
01:10:25.429 : en:01:10:25.429
01:14:52.363 : en:01:14:52.363
01:21:04.860 : en:01:21:04.860
01:31:38.785 : en:01:31:38.785
Релиз группа:
[Профиль] [ЛС]
Показать сообщения:    
Ответить на тему

Текущее время: 17-Янв 12:48

Часовой пояс: UTC + 4



Вы не можете начинать темы
Вы не можете отвечать на сообщения
Вы не можете редактировать свои сообщения
Вы не можете удалять свои сообщения
Вы не можете голосовать в опросах
Вы не можете прикреплять файлы к сообщениям
Вы не можете скачивать файлы
Анализ веб сайтов Яндекс.Метрика Рейтинг@Mail.ru