Паразит - Учение о жизни / Kiseijuu: Sei no Kakuritsu [01-24 из 24] (2014) HDTVRip 720p | AniDub

Ответить на тему
 
Автор Сообщение

4udaki ®

Оффлайн



Пол: Мужской

Стаж: 2 года 1 месяц

Наличие запрета:

Сообщений: 2551

Откуда: free-tor.com

Отдача: 2 Mb/s

Загрузка: 20 Mb/s

Нажми

Создавать темы 18-Июн-2015 12:51

[Цитировать]

[IMG=right]http://s019.[radikal временно запрещен]/i611/1505/7c/d5126b83f723.jpg[/IMG]Паразит - Учение о жизни / Kiseijuu: Sei no Kakuritsu-Год выпуска: 2014
Страна:
Япония
Жанр: приключения, фантастика, ужасы, драма
Тип: TV
Продолжительность: 24 серии по ~ 25 мин.
Перевод: Любительский (многоголосый) JAM & Cuba77 & Trina_D
Субтитры: отсутствуют
Хардсаб: отсутствует
Режиссёр: Мурасэ Сюко-Описание: Паразиты... Создания, живущие за счёт своего носителя, обладают совершенно нечеловеческой силой. Посланные небом должны проникать в мозг человека для полной власти над носителем. Но кому как повезёт... Именно эта неудача одного паразита спасает жизнь школьника Синдзи Идзуми, живущего обычной жизнью. Но и эта же неудача делает его носителем этого загадочного существа, обрекая Синдзи на постоянную борьбу за выживание с другими, более сильными паразитами. Что же будет делать Синдзи, если его существование с паразитом в его организме ставит на кон жизни и его близких?-Качество: HDTVRip 720p
Формат: MP4 (H264)
Видео: 1280x720 (16:9), 23.976 fps, MPEG4 Video (H264), High@L4.1 ~ 1606 kbps, 0.073 bit/pixel
Аудио: 48.0KHz, AAC, 2ch, ~ 192Kbps avg-

Список эпизодов

01. Метаморфоза
02. Демон во плоти
03. Пир
04. Растрепанные волосы
05. Незнакомец
06. Новый восход
07. Тёмная ночь океана
08. Точка замерзания
09. За гранью добра и зла
10. Этот безумный, безумный мир
11. Синяя птица
12. Сердце
13. Здравствуй, тоска
14. Эгоистичный ген
15. Жди дурного гостя
16. Счастливое семейство
17. Шерлок Холмс при смерти
18. Больше, чем человек
19. Хладнокровное убийство
20. Преступление и наказание
21. Сексуальность и духовность
22. Покой и пробуждение
23. Клятва и жизнь
24. Паразит
-

MediaInfo

Общее
Полное имя : C:[AniDub]_Kiseijuu_-_Sei_no_Kakuritsu_[JAM_Cuba77_Trina_D][AniDub]_Kiseijuu_-_Sei_no_Kakuritsu_[01]_[720p_x264_Aac]_[JAM_Cuba77_Trina_D].mp4
Формат : MPEG-4
Профиль формата : Base Media
Идентификатор кодека : isom
Размер файла : 296 Мбайт
Продолжительность : 23 м.
Режим общего битрейта : Переменный
Общий поток : 1802 Кбит/сек
Дата кодирования : UTC 2014-10-09 16:55:44
Дата пометки : UTC 2014-10-09 16:55:44
Программа кодирования : Yamb 2.1.0.0 [http://yamb.unite-video.com]
Видео
Идентификатор : 1
Формат : AVC
Формат/Информация : Advanced Video Codec
Профиль формата : High@L4.1
Параметр CABAC формата : Да
Параметр ReFrames формата : 4 кадра
Идентификатор кодека : avc1
Идентификатор кодека/Информация : Advanced Video Coding
Продолжительность : 23 м.
Битрейт : 1606 Кбит/сек
Максимальный битрейт : 9301 Кбит/сек
Ширина : 1280 пикселей
Высота : 720 пикселей
Соотношение сторон : 16:9
Режим частоты кадров : Постоянный
Частота кадров : 23,976 кадра/сек
Цветовое пространство : YUV
Субдискретизация насыщенности : 4:2:0
Битовая глубина : 8 бит
Тип развёртки : Прогрессивная
Бит/(Пиксели*Кадры) : 0.073
Размер потока : 264 Мбайт (89%)
Заголовок : 264
Библиотека кодирования : x264 core 129 r2245+729M 1a52e03
Настройки программы : cabac=1 / ref=4 / deblock=1:1:-1 / analyse=0x3:0x113 / me=umh / subme=9 / psy=1 / fade_compensate=0.00 / psy_rd=1.00:0.00 / mixed_ref=1 / me_range=24 / chroma_me=1 / trellis=2 / 8x8dct=1 / cqm=0 / deadzone=21,11 / fast_pskip=1 / chroma_qp_offset=-2 / threads=8 / lookahead_threads=1 / sliced_threads=0 / nr=0 / decimate=1 / interlaced=0 / bluray_compat=0 / constrained_intra=0 / fgo=0 / bframes=9 / b_pyramid=2 / b_adapt=2 / b_bias=0 / direct=1 / weightb=1 / open_gop=0 / weightp=2 / keyint=240 / keyint_min=24 / scenecut=40 / intra_refresh=0 / rc=crf / mbtree=0 / crf=18.5 / qcomp=0.72 / qpmin=0 / qpmax=69 / qpstep=4 / ip_ratio=1.40 / pb_ratio=1.30 / aq=1:0.85
Дата кодирования : UTC 2014-10-08 20:30:46
Дата пометки : UTC 2014-10-09 16:55:47
Основные цвета : BT.709
Характеристики трансфера : BT.709
Коэффициенты матрицы : BT.709
colour_range : Limited
Аудио
Идентификатор : 2
Формат : AAC
Формат/Информация : Advanced Audio Codec
Профиль формата : LC
Идентификатор кодека : 40
Продолжительность : 22 м.
Вид битрейта : Переменный
Битрейт : 192 Кбит/сек
Максимальный битрейт : 196 Кбит/сек
Каналы : 2 канала
Расположение каналов : Front: L R
Частота : 48,0 КГц
Метод сжатия : С потерями
Размер потока : 31,6 Мбайт (11%)
Язык : English
Дата кодирования : UTC 2014-10-09 16:55:46
Дата пометки : UTC 2014-10-09 16:55:47
-

Скриншоты

[URL=http://[radikal временно запрещен]/fp/43b201930abf48ebb5e8dd1c84153855][IMG]http://i079.[radikal временно запрещен]/1505/37/3abc0b99bb60t.jpg[/IMG][/URL][URL=http://[radikal временно запрещен]/fp/a9c1a9026e25451386cff1913d49a2b9][IMG]http://i079.[radikal временно запрещен]/1505/4d/cca538eee6a9t.jpg[/IMG][/URL][URL=http://[radikal временно запрещен]/fp/0a86a2e8bdf148f5aa72966e5cea74b8][IMG]http://s04.[radikal временно запрещен]/i177/1505/41/a4e34244c7a3t.jpg[/IMG][/URL][URL=http://[radikal временно запрещен]/fp/846b4f07a8a94dbf848c43b26b5506e6][IMG]http://s014.[radikal временно запрещен]/i327/1505/be/6d506cae4177t.jpg[/IMG][/URL]
[Профиль] [ЛС]
Показать сообщения:    
Ответить на тему

Текущее время: 09-Дек 05:50

Часовой пояс: UTC + 4



Вы не можете начинать темы
Вы не можете отвечать на сообщения
Вы не можете редактировать свои сообщения
Вы не можете удалять свои сообщения
Вы не можете голосовать в опросах
Вы не можете прикреплять файлы к сообщениям
Вы не можете скачивать файлы
Анализ веб сайтов Яндекс.Метрика Рейтинг@Mail.ru