Рыцари Сидонии: Битва за девятую планету / Sidonia no Kishi: Daikyuu Wakusei Seneki [s01] (2015) HDTVRip 720p | SHIZA Project

Ответить на тему
 
Автор Сообщение

4udaki ®

Оффлайн



Пол: Мужской

Стаж: 2 года 1 месяц

Наличие запрета:

Сообщений: 2535

Откуда: free-tor.com

Отдача: 2 Mb/s

Загрузка: 20 Mb/s

Нажми

Создавать темы 29-Июн-2015 11:45

[Цитировать]

[IMG=right]http://s019.[radikal временно запрещен]/i640/1506/fb/d52bc179b226.jpg[/IMG]Рыцари Сидонии: Битва за девятую планету / Sidonia no Kishi: Daikyuu Wakusei Seneki-Год выпуска: 2015
Страна:
Япония
Жанр: приключения, научная фантастика, меха
Тип: TV
Продолжительность: ~ 00:24:00 серия
Перевод: Любительский (двухголосый, закадровый) SHIZA Project
Режиссёр: Сэсита Хироюки-Описание: Далёкое будущее... Глубокий космос.
Космический корабль «Сидония» летит в бескрайней пустоте вот уже десять веков с момента гибели Солнечной системы. Огромные, почти неуязвимые, инопланетные монстры, разрушившие колыбель человечества, по-прежнему преследуют его остатки. За долгие годы бегства жизнь сильно изменилась. Клонирование, генетические модификации стали обычным делом. Нагатэ Таникадзе родился уже здесь, под толстой сверкающей бронёй обшивки, глубоко в недрах корабля. Его судьба — стать пилотом и защищать последнее пристанище человечества.-Качество: HDTVRip
Формат: MP4
Видео: 1280x720, 23.976 fps, 2000 kbps
Аудио RUS: 48.0 kHz, AAC, 2 ch, 192 kbps
Аудио JAP: 48.0 kHz, AAC, 2 ch, 192 kbps-

MediaInfo

General
Format : MPEG-4
Format profile : Base Media
Codec ID : isom
File size : 423 MiB
Duration : 24mn 27s
Overall bit rate mode : Variable
Overall bit rate : 2 417 Kbps
Encoded date : UTC 2015-04-12 16:45:11
Tagged date : UTC 2015-04-12 16:45:11
Writing application : Yamb 2.1.0.0
Video
ID : 1
Format : AVC
Format/Info : Advanced Video Codec
Format profile : High@L4.1
Format settings, CABAC : Yes
Format settings, ReFrames : 4 frames
Codec ID : avc1
Codec ID/Info : Advanced Video Coding
Duration : 24mn 26s
Bit rate : 2 028 Kbps
Maximum bit rate : 16.2 Mbps
Width : 1 280 pixels
Height : 720 pixels
Display aspect ratio : 16:9
Frame rate mode : Constant
Frame rate : 23.976 fps
Color space : YUV
Chroma subsampling : 4:2:0
Bit depth : 8 bits
Scan type : Progressive
Bits/(Pixel*Frame) : 0.092
Stream size : 355 MiB (84%)
Writing library : x264 core 129 r2245+729M 1a52e03
Encoding settings : cabac=1 / ref=4 / deblock=1:1:-1 / analyse=0x3:0x113 / me=umh / subme=9 / psy=1 / fade_compensate=0.00 / psy_rd=1.00:0.00 / mixed_ref=1 / me_range=24 / chroma_me=1 / trellis=2 / 8x8dct=1 / cqm=0 / deadzone=21,11 / fast_pskip=1 / chroma_qp_offset=-2 / threads=8 / lookahead_threads=1 / sliced_threads=0 / nr=0 / decimate=1 / interlaced=0 / bluray_compat=0 / constrained_intra=0 / fgo=0 / bframes=9 / b_pyramid=2 / b_adapt=2 / b_bias=0 / direct=1 / weightb=1 / open_gop=0 / weightp=2 / keyint=240 / keyint_min=24 / scenecut=40 / intra_refresh=0 / rc=crf / mbtree=0 / crf=18.5 / qcomp=0.72 / qpmin=0 / qpmax=69 / qpstep=4 / ip_ratio=1.40 / pb_ratio=1.30 / aq=1:0.85
Language : Japanese
Encoded date : UTC 2015-04-11 08:20:30
Tagged date : UTC 2015-04-12 16:45:13
Color primaries : BT.709
Transfer characteristics : BT.709
Matrix coefficients : BT.709
Audio #1
ID : 2
Format : AAC
Format/Info : Advanced Audio Codec
Format profile : LC
Codec ID : 40
Duration : 24mn 27s
Bit rate mode : Variable
Bit rate : 192 Kbps
Maximum bit rate : 264 Kbps
Channel(s) : 2 channels
Channel positions : Front: L R
Sampling rate : 48.0 KHz
Compression mode : Lossy
Stream size : 33.6 MiB (8%)
Title : Gomer & Hekomi
Language : Russian
Encoded date : UTC 2015-04-12 16:45:12
Tagged date : UTC 2015-04-12 16:45:13
Audio #2
ID : 3
Format : AAC
Format/Info : Advanced Audio Codec
Format profile : LC
Codec ID : 40
Duration : 24mn 27s
Bit rate mode : Variable
Bit rate : 192 Kbps
Maximum bit rate : 229 Kbps
Channel(s) : 2 channels
Channel positions : Front: L R
Sampling rate : 48.0 KHz
Compression mode : Lossy
Stream size : 33.5 MiB (8%)
Title : JAP Original
Language : Japanese
Encoded date : UTC 2015-04-12 16:45:13
Tagged date : UTC 2015-04-12 16:45:13
-

Список серий

01. Раздоры
02. Способности
03. Курс
04. Негодование
05. Желание
06. Запуск
07. Грохот
08. Воссоединение
09. Задание
10. Проникновение
11. Неожиданная встреча
12. Решающий бой
-

Скриншоты

[Профиль] [ЛС]
Показать сообщения:    
Ответить на тему

Текущее время: 06-Дек 12:09

Часовой пояс: UTC + 4



Вы не можете начинать темы
Вы не можете отвечать на сообщения
Вы не можете редактировать свои сообщения
Вы не можете удалять свои сообщения
Вы не можете голосовать в опросах
Вы не можете прикреплять файлы к сообщениям
Вы не можете скачивать файлы
Анализ веб сайтов Яндекс.Метрика Рейтинг@Mail.ru