Я и 23 раба / Doreiku: Boku to 23-nin no dorei (Сакичи Сато) [2014, детектив, HDRip] [DeadSno & den904]

Ответить на тему
 
Автор Сообщение

blacKK ®

Оффлайн

 Активный релизер 250 Активный релизер 500
 Друг трекера

Пол: Мужской

Стаж: 1 год 3 месяца

Наличие запрета:

Сообщений: 774

Откуда: Москва

Отдача: 2 Mb/s

Загрузка: 20 Mb/s

Нажми

Создавать темы 29-Авг-2015 13:12

[Цитировать]

Я и 23 раба / Doreiku: Boku to 23-nin no dorei-
Год выпуска: 2014
Страна: Япония
Жанр: детектив
Продолжительность: 01:40:12
Перевод: Любительский (двухголосый закадровый) [DeadSno & den904]
Режиссер: Сакичи Сато / Sakichi Satô
Сценарий: Синъити Окада, Сакичи Сато, Хидехиро Ито / Shin'ichi Okada, Sakichi Satô, Hidehiro Ito
Продюсер: Масаюки Икегами / Masayuki Ikegami
В ролях: Саяка Акимото / Sayaka Akimoto , Каната Хонго / Kanata Hongô , Удай Ивасаки / Udai Iwasaki , Юки Кубота / Yûki Kubota , Юсукэ Макио / Yusuke Makio , Хикару Осава / Hikaru Ohsawa , Ёсуке Саито / Yôsuke Saitô , Миюки Торий / Miyuki Torii

Описание: 24 человека играют в ожесточенную игру на выживание по своим собственным причинам. Каждый участник носит специальное устройство SCM, позволяющее превращать других игроков в своих рабов.
Премьера (мир): 28 июня 2014-- --Качество: HDRip
Формат: AVI
Видео кодек: XviD
Аудио кодеk: AC3
Видео: XviD, 1883 Кбит/сек, 720х400, 23,976 кадра/сек
Аудио: Аудио #1: AC-3, 192 Кбит/сек, 2 канала, 48,0 КГц

МедиаИнфо

Общее
Полное имя : D:\Кино\Doreiku Boku to 23-nin no dorei.avi
Формат : AVI
Формат/Информация : Audio Video Interleave
Размер файла : 1,46 Гбайт
Продолжительность : 1 ч. 40 м.
Общий поток : 2085 Кбит/сек
Программа кодирования : VirtualDubMod 1.5.10.3 | (build 2550/release)
Библиотека кодирования : VirtualDubMod build 2550/release
Видео
Идентификатор : 0
Формат : MPEG-4 Visual
Профиль формата : Advanced Simple@L5
Параметр BVOP формата : 1
Параметр QPel формата : Нет
Параметр GMC формата : Без точки перехода
Параметр матрицы формата : Default (MPEG)
Идентификатор кодека : XVID
Идентификатор кодека/Подсказка : XviD
Продолжительность : 1 ч. 40 м.
Битрейт : 1883 Кбит/сек
Ширина : 720 пикселей
Высота : 400 пикселей
Соотношение сторон : 16:9
Частота кадров : 23,976 кадра/сек
Цветовое пространство : YUV
Субдискретизация насыщенности : 4:2:0
Битовая глубина : 8 бит
Тип развёртки : Прогрессивная
Метод сжатия : С потерями
Бит/(Пиксели*Кадры) : 0.273
Размер потока : 1,32 Гбайт (90%)
Библиотека кодирования : XviD 1.2.1 (UTC 2008-12-04)
Аудио
Идентификатор : 1
Формат : AC-3
Формат/Информация : Audio Coding 3
Расширение режима : CM (complete main)
Параметр Endianness формата : Big
Идентификатор кодека : 2000
Продолжительность : 1 ч. 40 м.
Вид битрейта : Постоянный
Битрейт : 192 Кбит/сек
Каналы : 2 канала
Расположение каналов : Front: L R
Частота : 48,0 КГц
Метод сжатия : С потерями
Размер потока : 138 Мбайт (9%)
Выравнивание : Разделение по промежуткам
Продолжительность промежутка : 42 мс. (1,00 видеокадр)
Время предзагрузки промежутка : 500 мс.

Скриншоты

[Профиль] [ЛС]
Показать сообщения:    
Ответить на тему

Текущее время: 08-Дек 02:06

Часовой пояс: UTC + 4



Вы не можете начинать темы
Вы не можете отвечать на сообщения
Вы не можете редактировать свои сообщения
Вы не можете удалять свои сообщения
Вы не можете голосовать в опросах
Вы не можете прикреплять файлы к сообщениям
Вы не можете скачивать файлы
Анализ веб сайтов Яндекс.Метрика Рейтинг@Mail.ru